↑↓Torrent.by
Поиск
Логин: Регистрация
Пароль: Восстановить пароль
Загрузка...

Гоголь. Вий (2018) WEB-DL 720p от ExKinoRay | iTunes

Скачать gogol-viy-2018-web-dl-720p-ot-exkinoray-itunes.torrent
U Магнитная ссылка Размер: 3.06 GB Раздают: 646 Качают: 174 Добавлен: 2018-05-22 09:29:19
Гоголь. Вий (2018) WEB-DL 720p от ExKinoRay | iTunes

Название: Гоголь. Вий
Год выхода: 2018
Жанр: Детектив, приключения, драма
Режиссер: Егор Баранов
В ролях: Александр Петров (II), Олег Меньшиков, Евгений Стычкин, Таисия Вилкова, Артём Ткаченко, Екатерина Бурлакова, Сергей Бадюк, Ян Цапник, Алексей Вертков, Марта Тимофеева

О фильме: Писарь из Санкт-Петербурга Николай Гоголь бросает вызов загадочному тёмному Всаднику, который жестоко расправляется с девушками в окрестностях села Диканька. Собрав команду из местного полицейского, пьяницы-доктора, суеверного кузнеца и странствующего философа-экзорциста, Гоголь пытается заманить злодея в ловушку, но на его пути встает самое жуткое порождение нечистой силы — Вий, один взгляд которого способен высосать душу смертного. Неожиданно для себя Гоголь выясняет, что с потусторонними силами его связывают не только таинственные видения.

Страна: Россия
Студия: Продюсерская компания «Среда»
Продолжительность: 01:39:93

Качество: WEB-DL 720p
Видео: MPEG-4 AVC, 1280x536, 4030 Kbit/s, 24.000 fps
Звук:
Аудио: 48 kHz, AC3, 5.1, 384 Kbps | iTunes | RUS |

Релиз: Автор релиза:


[+] MI
General
Unique ID                   : 26260210949979330036074317717437523741 (0x13C1885C802FA083B85A945DBBB1A71D)
Complete name               : C:Video111Gogol.Viy.WEB-DL.720p.ExKinoRay.mkv
Format                      : Matroska
Format version              : Version 4 / Version 2
File size                   : 3.06 GiB
Duration                    : 1 h 39 min
Overall bit rate            : 4 416 kb/s
Movie name                  : Гоголь Вий 2018 from ExKinoRay
Encoded date                : UTC 2018-05-21 18:26:40
Writing application         : mkvmerge v22.0.0 ('At The End Of The World') 64-bit
Writing library             : libebml v1.3.5 + libmatroska v1.4.8

Video
ID                          : 1
Format                      : AVC
Format/Info                 : Advanced Video Codec
Format profile              : Main@L3.1
Format settings             : 2 Ref Frames
Format settings, CABAC      : No
Format settings, ReFrames   : 2 frames
Codec ID                    : V_MPEG4/ISO/AVC
Duration                    : 1 h 39 min
Bit rate                    : 4 030 kb/s
Width                       : 1 280 pixels
Height                      : 536 pixels
Display aspect ratio        : 2.40:1
Frame rate mode             : Constant
Frame rate                  : 24.000 FPS
Color space                 : YUV
Chroma subsampling          : 4:2:0
Bit depth                   : 8 bits
Scan type                   : Progressive
Bits/(Pixel*Frame)          : 0.245
Stream size                 : 2.79 GiB (91%)
Language                    : English
Default                     : Yes
Forced                      : No
Color range                 : Limited
Color primaries             : BT.709
Transfer characteristics    : BT.709
Matrix coefficients         : BT.709

Audio
ID                          : 2
Format                      : AC-3
Format/Info                 : Audio Coding 3
Codec ID                    : A_AC3
Duration                    : 1 h 39 min
Bit rate mode               : Constant
Bit rate                    : 384 kb/s
Channel(s)                  : 6 channels
Channel positions           : Front: L C R, Side: L R, LFE
Sampling rate               : 48.0 kHz
Frame rate                  : 31.250 FPS (1536 SPF)
Bit depth                   : 16 bits
Compression mode            : Lossy
Delay relative to video     : -42 ms
Stream size                 : 272 MiB (9%)
Language                    : Russian
Service kind                : Complete Main
Default                     : Yes
Forced                      : Yes

Menu
00:00:00.000                : en:Глава 1
00:07:29.000                : en:Глава 2
00:12:22.790                : en:Глава 3
00:20:44.455                : en:Глава 4
00:24:45.205                : en:Глава 5
00:30:02.620                : en:Глава 6
00:35:28.369                : en:Глава 7
00:41:36.952                : en:Глава 8
00:47:22.660                : en:Глава 9
00:52:11.243                : en:Глава 10
00:58:36.493                : en:Глава 11
01:05:09.993                : en:Глава 12
01:10:35.076                : en:Глава 13
01:15:23.908                : en:Глава 14
01:21:01.408                : en:Глава 15
01:27:35.283                : en:Глава 16



Скриншоты:
[+] Всего файлов в раздаче - 1:
Gogol.Viy.WEB-DL.720p.ExKinoRay.mkv3.06 GB

Текущая раздача:
ДатаКомментарии    РазмерПиры
2018-05-22 U Гоголь. Вий (2018) WEB-DL 720p от ExKinoRay | iTunes 3.06 GB ↑ 646 ↓ 174

Похожие раздачи по запросу - гоголь:
2018-05-23 U Гоголь. Вий (2018) WEB-DLRip от Generalfilm | КПК | iTunes 375.74 MB ↑ 57 ↓ 27
2018-05-23 U Гоголь. Вий (2018) WEB-DLRip-AVC от Generalfilm | iTunes 1.25 GB ↑ 172 ↓ 40
2018-05-22 U Гоголь. Вий (2018) WEB-DLRip от GeneralFilm | iTunes 745.35 MB ↑ 442 ↓ 131
2018-05-22 U Гоголь. Вий (2018) WEB-DLRip-AVC от ExKinoRay | iTunes 1К1.44 GB ↑ 273 ↓ 144
2018-05-22 U Гоголь. Вий (2018) WEB-DLRip от MegaPeer | iTunes 1.46 GB ↑ 1540 ↓ 770
2013-11-11 U Вечера на хуторе близ Диканьки - Н. В. Гоголь (2008) MP3 15К503.36 MB ↑ 2078 ↓ 24

Отзывы
Зарегистрируйтесь чтобы добавить комментарий.
Обратная связь
Copyleft ©