↑↓Torrent.by
Поиск
Логин: Регистрация
Пароль: Восстановить пароль
Загрузка...

Гоголь. Вий (2018) WEB-DLRip-AVC от Generalfilm | iTunes

Скачать gogol-viy-2018-web-dlrip-avc-ot-generalfilm-itunes.torrent
U Магнитная ссылка Размер: 1.25 GB Раздают: 174 Качают: 40 Добавлен: 2018-05-23 09:56:10
Гоголь. Вий  (2018) WEB-DLRip-AVC от Generalfilm | iTunes

Название: Гоголь. Вий
Год выпуска: 2018
Страна: Россия
Жанр: детектив, приключения, драма
Перевод: оригинал [iTunes]
Продолжительность: 01:39:03
Режиссер: Егор Баранов
В ролях: Александр Петров (Николай Гоголь), Олег Меньшиков (Яков Гуро, сыщик), Евгений Стычкин (Бинх, полицейский), Таисия Вилкова (Лиза), Артем Ткаченко (граф Данишевский), Екатерина Бурлакова (монахиня), Сергей Бадюк (Вакула, кузнец), Ян Цапник (Бомгарт, доктор), Алексей Вертков (Хома Брут, мастер восточных единоборств и философ), Марта Тимофеева (Василина), Юлия Франц, Ксения Разина (Ульяна)

Описание:
Писарь из Санкт-Петербурга Николай Гоголь бросает вызов загадочному тёмному Всаднику, который жестоко расправляется с девушками в окрестностях села Диканька. Собрав команду из местного полицейского, пьяницы-доктора, суеверного кузнеца и странствующего философа-экзорциста, Гоголь пытается заманить злодея в ловушку, но на его пути встает самое жуткое порождение нечистой силы - Вий, один взгляд которого способен высосать душу смертного. Неожиданно для себя Гоголь выясняет, что с потусторонними силами его связывают не только таинственные видения.

Качество: WEB-DLRip-AVC
Формат: MKV
Видео: AVC, 1024x428 (2.40:1), 1419 kbps, 24 fps, 0,135 bpp
Аудио: русский / AC3 / 5.1 / 48 kHz / 384 kbps / ||
Навигация по главам: есть

Релиз:
[+] ОтчетМедиаИнфо

General
Unique ID                                : 196363832575768836530968743402050998264 (0x93BA4C6B7E84A2E68D154F877D48CFF8)
Complete name                            : E:запись с твGogol.Viy.WEB-DLRip-AVC.by.White Smoke.R.G.Generalfilm.mkv
Format                                   : Matroska
Format version                           : Version 2
File size                                : 1.25 GiB
Duration                                 : 1 h 39 min
Overall bit rate                         : 1 804 kb/s
Movie name                               : Gogol.Viy.WEB-DLRip-AVC.by.White Smoke.R.G.Generalfilm.mkv
Encoded date                             : UTC 2018-05-22 13:52:32
Writing application                      : mkvmerge v7.6.0 ('Garden of Dreams') 32bit built on Feb 11 2015 00:18:47
Writing library                          : libebml v1.3.1 + libmatroska v1.4.2

Video
ID                                       : 1
Format                                   : AVC
Format/Info                              : Advanced Video Codec
Format profile                           : High@L4.1
Format settings, CABAC                   : Yes
Format settings, ReFrames                : 10 frames
Codec ID                                 : V_MPEG4/ISO/AVC
Duration                                 : 1 h 39 min
Bit rate                                 : 1 419 kb/s
Width                                    : 1 024 pixels
Height                                   : 428 pixels
Display aspect ratio                     : 2.40:1
Frame rate mode                          : Constant
Frame rate                               : 24.000 FPS
Color space                              : YUV
Chroma subsampling                       : 4:2:0
Bit depth                                : 8 bits
Scan type                                : Progressive
Bits/(Pixel*Frame)                       : 0.135
Stream size                              : 981 MiB (77%)
Writing library                          : x264 core 148 r2638 7599210
Encoding settings                        : cabac=1 / ref=10 / deblock=1:-2:-1 / analyse=0x3:0x113 / me=umh / subme=11 / psy=1 / psy_rd=0.00:0.15 / mixed_ref=1 / me_range=32 / chroma_me=1 / trellis=2 / 8x8dct=1 / cqm=0 / deadzone=21,11 / fast_pskip=0 / chroma_qp_offset=-3 / threads=6 / lookahead_threads=1 / sliced_threads=0 / nr=0 / decimate=0 / interlaced=0 / bluray_compat=0 / constrained_intra=0 / bframes=10 / b_pyramid=2 / b_adapt=2 / b_bias=0 / direct=1 / weightb=1 / open_gop=0 / weightp=2 / keyint=240 / keyint_min=24 / scenecut=40 / intra_refresh=0 / rc_lookahead=40 / rc=2pass / mbtree=1 / bitrate=1419 / ratetol=1.0 / qcomp=0.65 / qpmin=0 / qpmax=69 / qpstep=4 / cplxblur=20.0 / qblur=0.5 / vbv_maxrate=50000 / vbv_bufsize=65500 / nal_hrd=none / filler=0 / ip_ratio=1.40 / aq=1:1.00
Language                                 : English
Default                                  : Yes
Forced                                   : No

Audio
ID                                       : 2
Format                                   : AC-3
Format/Info                              : Audio Coding 3
Mode extension                           : CM (complete main)
Format settings, Endianness              : Big
Codec ID                                 : A_AC3
Duration                                 : 1 h 39 min
Bit rate mode                            : Constant
Bit rate                                 : 384 kb/s
Channel(s)                               : 6 channels
Channel positions                        : Front: L C R, Side: L R, LFE
Sampling rate                            : 48.0 kHz
Frame rate                               : 31.250 FPS (1536 spf)
Compression mode                         : Lossy
Stream size                              : 272 MiB (21%)
Language                                 : Russian
Default                                  : Yes
Forced                                   : Yes

Menu
00:00:00.000                             : en:Глава 1
00:07:29.000                             : en:Глава 2
00:12:22.790                             : en:Глава 3
00:20:44.455                             : en:Глава 4
00:24:45.205                             : en:Глава 5
00:30:02.620                             : en:Глава 6
00:35:28.369                             : en:Глава 7
00:41:36.952                             : en:Глава 8
00:47:22.660                             : en:Глава 9
00:52:11.243                             : en:Глава 10
00:58:36.493                             : en:Глава 11
01:05:09.993                             : en:Глава 12
01:10:35.076                             : en:Глава 13
01:15:23.908                             : en:Глава 14
01:21:01.408                             : en:Глава 15
01:27:35.283                             : en:Глава 16




Скриншоты:
[+] Всего файлов в раздаче - 1:
Gogol.Viy.WEB-DLRip-AVC.by.White Smoke.R.G.Generalfilm.mkv1.25 GB

Текущая раздача:
ДатаКомментарии    РазмерПиры
2018-05-23 U Гоголь. Вий (2018) WEB-DLRip-AVC от Generalfilm | iTunes 1.25 GB ↑ 174 ↓ 40

Похожие раздачи по запросу - гоголь:
2018-05-23 U Гоголь. Вий (2018) WEB-DLRip от Generalfilm | КПК | iTunes 375.74 MB ↑ 57 ↓ 27
2018-05-22 U Гоголь. Вий (2018) WEB-DLRip от GeneralFilm | iTunes 745.35 MB ↑ 448 ↓ 132
2018-05-22 U Гоголь. Вий (2018) WEB-DLRip-AVC от ExKinoRay | iTunes 1К1.44 GB ↑ 275 ↓ 144
2018-05-22 U Гоголь. Вий (2018) WEB-DL 720p от ExKinoRay | iTunes 3.06 GB ↑ 658 ↓ 174
2018-05-22 U Гоголь. Вий (2018) WEB-DLRip от MegaPeer | iTunes 1.46 GB ↑ 1555 ↓ 770
2013-11-11 U Вечера на хуторе близ Диканьки - Н. В. Гоголь (2008) MP3 15К503.36 MB ↑ 2083 ↓ 24

Отзывы
Зарегистрируйтесь чтобы добавить комментарий.
Обратная связь
Copyleft ©