↑↓Torrent.by
Поиск
Логин: Регистрация
Пароль: Восстановить пароль
Загрузка...

Игла Remix (2010) DVDRip-AVC от KORSAR

Скачать igla-remix-2010-dvdrip-avc-ot-korsar.torrent
U Магнитная ссылка Размер: 1.63 GB Раздают: 89 Качают: 43 Добавлен: 2018-05-23 12:25:21
Игла Remix (2010) DVDRip-AVC от KORSAR

Игла Remix

Страна: Россия, СССР
Студия: ТИТАН
Жанр:  Триллер, драма
Год выпуска: 2010
Продолжительность: 01:26:25
Перевод: Не требуется
Режиссер: Рашид Нугманов
В ролях: Виктор Цой, Александр Баширов, Петр Мамонов, Марина Смирнова, Геннадий Люй, Архимед Искаков, Георгий Гурьянов, Дмитрий Мишенин, Светлана Нагаева, Роберт Цой, и т.д.

Описание: Герой Цоя, Моро, возвращается в родную Алма-Ату за денежным долгом мошенника Спартака и останавливается у своей подруги, с которой давно расстался. Старая любовь вернулась, но Дина удивляет его своим странным поведением и подозрительными знакомыми. Оказывается, она стала наркоманкой, и ее квартира превратилась в притон. Моро увозит ее к Аральскому морю, изолирует от окружающего мира и помогает избавиться от наркотической зависимости. Дина поправляется, но по возвращении в город поставщик наркотиков, хирург Артур, организует охоту за непокорными. Стоящая за ним преступная группировка принимает решение вновь посадить Дину на иглу и убить Моро.

Кодек: х264
Качество: DVDRip-AVC
Видео: MPEG-4 AVC, 720х552@1024x552, 25 fps, 2500 Кбит/с
Аудио: AC3, 2h, 192 Кбит/с
Субтитры: Нет


[+] Инфо файл

x264 [info]: frame I:742   Avg QP:16.94  size: 84238
x264 [info]: frame P:26970 Avg QP:20.85  size: 27298
x264 [info]: frame B:101923 Avg QP:22.64  size:  8063

Общее
Уникальный идентификатор                 : 246041270113388599835310972118055469094 (0xB919D3310395B9128496DF89374B4026)
Полное имя                               : H:Наше современное киноИгла ремикс 2010_DVDRip-AVC_KORSAR.mkv
Формат                                   : Matroska
Версия формата                           : Version 2
Размер файла                             : 1,63 Гбайт
Продолжительность                        : 1 ч. 26 м.
Общий поток                              : 2694 Кбит/сек
Дата кодирования                         : UTC 2018-03-05 12:20:29
Программа кодирования                    : mkvmerge v5.8.0 ('No Sleep / Pillow') built on Sep  2 2012 15:37:04
Библиотека кодирования                   : libebml v1.2.3 + libmatroska v1.3.0

Видео
Идентификатор                            : 1
Формат                                   : AVC
Формат/Информация                        : Advanced Video Codec
Профиль формата                          : High@L4.1
Настройки формата                        : CABAC / 15 Ref Frames
Параметр CABAC формата                   : Да
Параметр RefFrames формата               : 15 кадров
Идентификатор кодека                     : V_MPEG4/ISO/AVC
Продолжительность                        : 1 ч. 26 м.
Битрейт                                  : 2500 Кбит/сек
Ширина                                   : 720 пикселей
Высота                                   : 552 пикселя
Соотношение сторон                       : 1,85:1
Режим частоты кадров                     : Постоянный
Частота кадров                           : 25,000 кадров/сек
Цветовое пространство                    : YUV
Субдискретизация насыщенности            : 4:2:0
Битовая глубина                          : 8 бит
Тип развёртки                            : Прогрессивная
Бит/(Пиксели*Кадры)                      : 0.252
Размер потока                            : 1,48 Гбайт (91%)
Библиотека кодирования                   : x264 core 152 r2851kMod ba24899
Настройки программы                      : cabac=1 / ref=15 / deblock=1:-2:-1 / analyse=0x3:0x133 / me=umh / subme=11 / psy=1 / fade_compensate=0.00 / psy_rd=1.05:0.10 / mixed_ref=1 / me_range=48 / chroma_me=1 / trellis=2 / 8x8dct=1 / cqm=0 / deadzone=21,11 / fast_pskip=0 / chroma_qp_offset=-3 / threads=12 / lookahead_threads=3 / sliced_threads=0 / nr=0 / decimate=0 / interlaced=0 / bluray_compat=0 / constrained_intra=0 / bframes=12 / b_pyramid=2 / b_adapt=2 / b_bias=0 / direct=3 / weightb=1 / open_gop=0 / weightp=2 / keyint=250 / keyint_min=25 / scenecut=40 / intra_refresh=0 / rc_lookahead=40 / rc=2pass / mbtree=0 / bitrate=2500 / ratetol=1.0 / qcomp=0.60 / qpmin=0 / qpmax=39 / qpstep=4 / cplxblur=20.0 / qblur=0.5 / vbv_maxrate=50000 / vbv_bufsize=62500 / nal_hrd=none / filler=0 / ip_ratio=1.40 / pb_ratio=1.30 / aq=1:1.00
Язык                                     : English
Default                                  : Да
Forced                                   : Нет
Цветовой диапазон                        : Limited
Основные цвета                           : BT.601 PAL
Характеристики трансфера                 : BT.470 System B, BT.470 System G
Коэффициенты матрицы                     : BT.470 System B, BT.470 System G

Аудио
Идентификатор                            : 2
Формат                                   : AC-3
Формат/Информация                        : Audio Coding 3
Параметр Endianness формата              : Big
Идентификатор кодека                     : A_AC3
Продолжительность                        : 1 ч. 26 м.
Вид битрейта                             : Постоянный
Битрейт                                  : 192 Кбит/сек
Каналы                                   : 2 канала
Расположение каналов                     : Front: L R
Частота                                  : 48,0 КГц
Частота кадров                           : 31,250 кадров/сек (1536 SPF)
Битовая глубина                          : 16 бит
Метод сжатия                             : С потерями
Размер потока                            : 119 Мбайт (7%)
Язык                                     : Russian
Default                                  : Да
Forced                                   : Нет  



Скриншоты:
[+] Всего файлов в раздаче - 1:
Игла ремикс 2010_DVDRip-AVC_KORSAR.mkv1.63 GB

Текущая раздача:
ДатаКомментарии    РазмерПиры
2018-05-23 U Игла Remix (2010) DVDRip-AVC от KORSAR 1.63 GB ↑ 89 ↓ 43

Похожие раздачи по запросу - игла:
2017-08-16 U Игла (1988) DVDRip-AVC от ExKinoRay | Реставрация 746.04 MB ↑ 60 ↓ 34
2013-12-30 U Игла (1988) DVDRip от New-Team 1.45 GB ↑ 11 ↓ 18

Отзывы
Зарегистрируйтесь чтобы добавить комментарий.
Обратная связь
Copyleft ©