↑↓Torrent.by
Поиск
Логин: Регистрация
Пароль: Восстановить пароль
Загрузка...

Анон / Anon (2018) WEB-DL 1080p от ExKinoRay | iTunes | Локализованная версия

Скачать anon-2018-web-dl-1080p-ot-exkinoray-itunes-lokalizovannaya-versiya.torrent
U Магнитная ссылка Размер: 3.89 GB Раздают: 526 Качают: 366 Добавлен: 2018-05-24 09:57:08
Анон / Anon (2018) WEB-DL 1080p от ExKinoRay | iTunes | Локализованная версия

Название: Анон
Оригинальное название: Anon
Год выхода: 2018
Жанр: Фантастика, триллер
Режиссер: Эндрю Никкол
В ролях: Клайв Оуэн, Аманда Сайфред, Колм Фиор, Соня Уолгер, Марк О’Брайэн, Джо Пинг, Иддо Голдберг, Себастьян Пижотт, Рэйчел Робертс (I), Этан Таварес

О фильме: Идеальное общество будущего: режим тотального надзора, отсутствие личной жизни, приватных территорий и гражданских прав. Казалось бы, в полностью контролируемом государстве нет места ошибкам и правонарушениям. Но однажды детектив Сол Фриленд знакомится с девушкой, которая не числится в базах данных. Перед копом приоткрывается дверь преступного мира новой эры…

Страна: Германия, США
Студия: K5 Film, K5 International, K5 Media Group
Продолжительность: 01:36:04
Перевод: Дублированный | iTunes

Качество: WEB-DL 1080p | Локализованная версия
Видео: MPEG-4 AVC, 1920x1038, 5046 Kbit/s, 25.000 fps
Звук:
Аудио #01: 48 kHz, AC3, 5.1, 384 Kbps | iTunes | RUS |
Аудио #02: 48 kHz, AC3, 5.1, 384 Kbps | Оригинал |  ENG |
Субтитры: Русские (full), английские

Релиз: Автор релиза:


[+] MI
General
Unique ID                   : 299758225988444821658257401080616481537 (0xE183559802D2AFEF94E827A3591A7301)
Complete name               : C:Video111Anon.2018.WEB-DL.1080p.ExKinoRay.mkv
Format                      : Matroska
Format version              : Version 4 / Version 2
File size                   : 3.89 GiB
Duration                    : 1 h 36 min
Overall bit rate            : 5 798 kb/s
Movie name                  : Anon 2018 from ExKinoRay #селезень
Encoded date                : UTC 2018-05-24 04:15:45
Writing application         : mkvmerge v22.0.0 ('At The End Of The World') 64-bit
Writing library             : libebml v1.3.5 + libmatroska v1.4.8

Video
ID                          : 1
Format                      : AVC
Format/Info                 : Advanced Video Codec
Format profile              : High@L4
Format settings             : CABAC / 4 Ref Frames
Format settings, CABAC      : Yes
Format settings, ReFrames   : 4 frames
Codec ID                    : V_MPEG4/ISO/AVC
Duration                    : 1 h 35 min
Bit rate                    : 5 046 kb/s
Width                       : 1 920 pixels
Height                      : 1 038 pixels
Display aspect ratio        : 1.85:1
Frame rate mode             : Constant
Frame rate                  : 25.000 FPS
Color space                 : YUV
Chroma subsampling          : 4:2:0
Bit depth                   : 8 bits
Scan type                   : Progressive
Bits/(Pixel*Frame)          : 0.101
Stream size                 : 3.37 GiB (87%)
Language                    : English
Default                     : Yes
Forced                      : No
Color range                 : Limited
Color primaries             : BT.709
Transfer characteristics    : BT.709
Matrix coefficients         : BT.709

Audio #1
ID                          : 2
Format                      : AC-3
Format/Info                 : Audio Coding 3
Codec ID                    : A_AC3
Duration                    : 1 h 35 min
Bit rate mode               : Constant
Bit rate                    : 384 kb/s
Channel(s)                  : 6 channels
Channel positions           : Front: L C R, Side: L R, LFE
Sampling rate               : 48.0 kHz
Frame rate                  : 31.250 FPS (1536 SPF)
Bit depth                   : 16 bits
Compression mode            : Lossy
Stream size                 : 263 MiB (7%)
Title                       : iTunes
Language                    : Russian
Service kind                : Complete Main
Default                     : Yes
Forced                      : Yes

Audio #2
ID                          : 3
Format                      : AC-3
Format/Info                 : Audio Coding 3
Codec ID                    : A_AC3
Duration                    : 1 h 36 min
Bit rate mode               : Constant
Bit rate                    : 384 kb/s
Channel(s)                  : 6 channels
Channel positions           : Front: L C R, Side: L R, LFE
Sampling rate               : 48.0 kHz
Frame rate                  : 31.250 FPS (1536 SPF)
Bit depth                   : 16 bits
Compression mode            : Lossy
Stream size                 : 264 MiB (7%)
Title                       : Original
Language                    : English
Service kind                : Complete Main
Default                     : No
Forced                      : No

Text #1
ID                          : 4
Format                      : UTF-8
Codec ID                    : S_TEXT/UTF8
Codec ID/Info               : UTF-8 Plain Text
Duration                    : 1 s 440 ms
Bit rate                    : 127 b/s
Count of elements           : 1
Stream size                 : 23.0 Bytes (0%)
Language                    : Russian
Default                     : Yes
Forced                      : Yes

Text #2
ID                          : 5
Format                      : UTF-8
Codec ID                    : S_TEXT/UTF8
Codec ID/Info               : UTF-8 Plain Text
Duration                    : 1 h 26 min
Bit rate                    : 71 b/s
Count of elements           : 916
Stream size                 : 45.1 KiB (0%)
Language                    : Russian
Default                     : No
Forced                      : No

Text #3
ID                          : 6
Format                      : UTF-8
Codec ID                    : S_TEXT/UTF8
Codec ID/Info               : UTF-8 Plain Text
Duration                    : 1 h 25 min
Bit rate                    : 40 b/s
Count of elements           : 912
Stream size                 : 25.2 KiB (0%)
Language                    : English
Default                     : No
Forced                      : No

Menu
00:00:00.000                : en:Глава 1
00:08:42.240                : en:Глава 2
00:13:57.480                : en:Глава 3
00:21:13.960                : en:Глава 4
00:28:03.160                : en:Глава 5
00:33:45.199                : en:Глава 6
00:39:19.879                : en:Глава 7
00:45:09.918                : en:Глава 8
00:50:54.638                : en:Глава 9
00:57:42.837                : en:Глава 10
01:05:00.396                : en:Глава 11
01:10:57.395                : en:Глава 12
01:17:53.235                : en:Глава 13
01:25:13.235                : en:Глава 14



Скриншоты:
[+] Всего файлов в раздаче - 1:
Anon.2018.WEB-DL.1080p.ExKinoRay.mkv3.89 GB

Текущая раздача:
ДатаКомментарии    РазмерПиры
2018-05-24 U Анон / Anon (2018) WEB-DL 1080p от ExKinoRay | iTunes | Локализованная версия 3.89 GB ↑ 526 ↓ 366

Похожие раздачи по запросу - анон:
2018-05-28 U Анон / Anon (2018) WEB-DLRip-AVC от Rustorka | iTunes 2.57 GB ↑ 81 ↓ 29
2018-05-25 U Анон / Anon (2018) WEB-DLRip от Scarabey | iTunes 1.46 GB ↑ 106 ↓ 21
2018-05-24 U Анон / Anon (2018) WEB-DLRip от MegaPeer | Локализованная версия | iTunes 745.06 MB ↑ 111 ↓ 58
2018-05-24 U Анон / Anon (2018) WEB-DL 720p от ExKinoRay | iTunes | Локализованная версия 3.26 GB ↑ 160 ↓ 120
2018-05-24 U Анон / Anon (2018) WEB-DLRip от ExKinoRay | iTunes | Локализованная версия 1.40 GB ↑ 321 ↓ 293

Отзывы
Зарегистрируйтесь чтобы добавить комментарий.
Обратная связь
Copyleft ©