↑↓Torrent.by
Поиск
Логин: Регистрация
Пароль: Восстановить пароль
Загрузка...

Именины (2004) DVDRip-AVC от KORSAR

Скачать imeniny-2004-dvdrip-avc-ot-korsar.torrent
U Магнитная ссылка Размер: 1.49 GB Раздают: 109 Качают: 15 Добавлен: 2018-05-24 10:00:06
Именины (2004) DVDRip-AVC от KORSAR

Название: Именины
Год выпуска: 2004
Жанр:  Комедия
Режиссёры: Валерий Наумов, Андрей Черных
В ролях: Кира Крейлис-Петрова, Юрий Кузнецов, Мария Кузнецова, Игорь Петренко, Екатерина Гроховская, Федор Лавров

Описание: В деревню приезжает молодой художник Виктор - оформить к Новому году местный клуб. Мишка, хозяин клуба, встречает Виктора и ведет его в дом, где сдается комната. Между Виктором и дочкой хозяина дома, Татьяной, возникает симпатия. Мишка, безумно влюбленный в девушку, видит это и из ревности говорит Татьяне и всему семейству, что их постоялец - пациент дурдома, а Виктору сообщает, что вся семейка "со справками". Но обман неизбежно раскрывается.

Страна: Россия
Студия: Крона, Прокат, Гельварс Россия
Продолжительность: 01:35:14
Перевод: Не требуется

Файл
Кодек: х264
Качество: DVDRip-AVC
Видео: MPEG-4 AVC, 704x566@750x566, 1939 Кбит/с, 25.000 Кадр/с
Аудио: AC3, 2 ch, 256 Кбит/с
Субтитры: Нет

Релиз:
[+] MediaInfo
Общее
Уникальный идентификатор                 : 237952128789711506446959838317151023393 (0xB303E9BB760A7EE79AEBF5C607107121)
Полное имя                               : Именины_2004-DVDRip-AVC_KORSAR.mkv
Формат                                   : Matroska
Версия формата                           : Version 2
Размер файла                             : 1,49 Гбайт
Продолжительность                        : 1 ч. 35 м.
Общий поток                              : 2239 Кбит/сек
Название фильма                          : Именины_2004-DVDRip-AVC_KORSAR
Дата кодирования                         : UTC 2018-02-06 19:14:45
Программа кодирования                    : mkvmerge v5.8.0 ('No Sleep / Pillow') built on Sep  2 2012 15:37:04
Библиотека кодирования                   : libebml v1.2.3 + libmatroska v1.3.0

Видео
Идентификатор                            : 1
Формат                                   : AVC
Формат/Информация                        : Advanced Video Codec
Профиль формата                          : High@L4.1
Параметр CABAC формата                   : Да
Параметр RefFrames формата               : 14 кадров
Идентификатор кодека                     : V_MPEG4/ISO/AVC
Продолжительность                        : 1 ч. 35 м.
Битрейт                                  : 1939 Кбит/сек
Ширина                                   : 704 пикселя
Высота                                   : 566 пикселей
Соотношение сторон                       : 4:3
Соотношение сторон в оригинале           : 4:3
Режим частоты кадров                     : Постоянный
Частота кадров                           : 25,000 кадров/сек
Цветовое пространство                    : YUV
Субдискретизация насыщенности            : 4:2:0
Битовая глубина                          : 8 бит
Тип развёртки                            : Прогрессивная
Бит/(Пиксели*Кадры)                      : 0.195
Размер потока                            : 1,29 Гбайт (87%)
Библиотека кодирования                   : x264 core 148 r2744kMod b97ae06
Настройки программы                      : cabac=1 / ref=14 / deblock=1:-2:1 / analyse=0x3:0x133 / me=umh / subme=10 / psy=1 / fade_compensate=0.00 / psy_rd=1.05:0.10 / mixed_ref=1 / me_range=40 / chroma_me=1 / trellis=2 / 8x8dct=1 / cqm=0 / deadzone=21,11 / fast_pskip=1 / chroma_qp_offset=-3 / threads=12 / lookahead_threads=3 / sliced_threads=0 / nr=0 / decimate=1 / interlaced=0 / bluray_compat=0 / constrained_intra=0 / bframes=10 / b_pyramid=2 / b_adapt=2 / b_bias=0 / direct=1 / weightb=1 / open_gop=0 / weightp=2 / keyint=250 / keyint_min=25 / scenecut=40 / intra_refresh=0 / rc_lookahead=40 / rc=crf / mbtree=0 / crf=17.8000 / qcomp=0.63 / qpmin=0 / qpmax=39 / qpstep=4 / vbv_maxrate=50000 / vbv_bufsize=62500 / crf_max=0.0 / nal_hrd=none / filler=0 / ip_ratio=1.40 / pb_ratio=1.30 / aq=1:1.00
Язык                                     : English
Default                                  : Да
Forced                                   : Нет
Цветовой диапазон                        : Limited
Основные цвета                           : BT.601 PAL
Характеристики трансфера                 : BT.470 System B, BT.470 System G
Коэффициенты матрицы                     : BT.601

Аудио
Идентификатор                            : 2
Формат                                   : AC-3
Формат/Информация                        : Audio Coding 3
Параметр Endianness формата              : Big
Идентификатор кодека                     : A_AC3
Продолжительность                        : 1 ч. 35 м.
Вид битрейта                             : Постоянный
Битрейт                                  : 256 Кбит/сек
Каналы                                   : 2 канала
Расположение каналов                     : Front: L R
Частота                                  : 48,0 КГц
Частота кадров                           : 31,250 кадров/сек (1536 SPF)
Битовая глубина                          : 16 бит
Метод сжатия                             : С потерями
Размер потока                            : 174 Мбайт (11%)
Язык                                     : Russian
Default                                  : Да
Forced                                   : Нет



Скриншоты:
[+] Всего файлов в раздаче - 1:
Именины_2004-DVDRip-AVC_KORSAR.mkv1.49 GB

Текущая раздача:
ДатаКомментарии    РазмерПиры
2018-05-24 U Именины (2004) DVDRip-AVC от KORSAR 1 К 1.49 GB ↑ 109 ↓ 15

Похожие раздачи по запросу - именины:
2016-06-05 U Именины (2004) DVDRip 1.46 GB ↑ 148 ↓ 19

Отзывы
taruts88
Очень хороший фильм!!!
Кто не смотрел, обязательно к просмотру. Комедия душевная, и без скабрезностей.

Зарегистрируйтесь чтобы добавить комментарий.
Обратная связь
Copyleft ©