↑↓Torrent.by
Поиск
Логин: Регистрация
Пароль: Восстановить пароль
Загрузка...

Невероятные приключения янки в Африке / Yankee Zulu (1993) WEB-DLRip 1080p | P, P2

Скачать neveroyatnye-priklyucheniya-yanki-v-afrike-yankee-zulu-1993-web-dlrip-1080p-p-p2.torrent
U Магнитная ссылка Размер: 8.78 GB Раздают: 121 Качают: 34 Добавлен: 2018-05-25 05:35:14
Невероятные приключения янки в Африке / Yankee Zulu (1993) WEB-DLRip 1080p | P, P2

Название: Опасный бизнес
Оригинальное название: Gringo
Жанр:  Комедия
Режиссер: Грей Хофмайр

Актеры: Леон Шустер, Джон Матшикиза, Уилсон Данстер, Терри Триз, Мишель Боус, Скай Свориник, Руан Мандельстам, Бобо Серитсани, Мари Майкл, Мбали Дладла

Описание:
Шалости друзей — мальчишек, белого африканера и черного зулу — сделали бы честь даже легендарному Кевину из комедии «Один дома».
Жизнь надолго разлучает их, но встретившись через 25 лет, они вспоминают детство — похищают полмиллиона долларов и, преобразившись в гримерной телевидения белый в черного, а черный в белого, скрываются от преследователей.

Производство: ЮАР / Distant Horizons, Koukus Troika, Toron Screen Corporation
Продолжительность: 01:29:42
Перевод: Профессиональный многоголосый, закадровый (Актерская студия "Синхрон", компания "Хлопушка") + Профессиональный многоголосый, закадровый (НТВ)
Язык субтитров: Русский
Вид субтитров: Вшитые отключаемые

Файл
Формат: MKV
Качество: WEB-DLRip 1080p
Видео: AVC/H.264, 1920х1080, ~13 Mbps
Аудио: 1 AC3, 6 ch, 384 kbps - Русский, двуголосый (НТВ)
Аудио: 2 AC3, 2 ch, 192 kbps - Русский, многоголосый (Хлопушка)
Аудио: 3 EAC3, 2 ch, 224 kbps - Английский оригинальный


[+] M/I
Complete name               : H:Yankee Zulu.(1993).WEBRip.1080p.mkv
Format                      : Matroska
Format version              : Version 2
File size                   : 8.78 GiB
Duration                    : 1 h 29 min
Overall bit rate mode       : Variable
Overall bit rate            : 14.0 Mb/s
Movie name                  : Yankee Zulu.(1993).WEBRip.1080p_ Atomsk_
Encoded date                : UTC 2017-02-14 18:27:15
Writing application         : mkvmerge v5.8.0 ('No Sleep / Pillow') built on Sep  2 2012 15:37:04
Writing library             : libebml v1.2.3 + libmatroska v1.3.0

Video
ID                          : 1
Format                      : AVC
Format/Info                 : Advanced Video Codec
Format profile              : High@L4
Format settings, CABAC      : Yes
Format settings, ReFrames   : 4 frames
Codec ID                    : V_MPEG4/ISO/AVC
Duration                    : 1 h 29 min
Bit rate mode               : Variable
Bit rate                    : 12.9 Mb/s
Maximum bit rate            : 15.0 Mb/s
Width                       : 1 920 pixels
Height                      : 1 080 pixels
Display aspect ratio        : 16:9
Frame rate mode             : Constant
Frame rate                  : 23.976 (24000/1001) FPS
Color space                 : YUV
Chroma subsampling          : 4:2:0
Bit depth                   : 8 bits
Scan type                   : Progressive
Bits/(Pixel*Frame)          : 0.259
Stream size                 : 8.07 GiB (92%)
Title                       : Yankee Zulu.(1993).WEBRip.1080p
Writing library             : x264 core 148 r2623 d5b2374
Encoding settings           : cabac=1 / ref=4 / deblock=1:-1:-1 / analyse=0x3:0x133 / me=umh / subme=9 / psy=1 / psy_rd=1.00:0.15 / mixed_ref=1 / me_range=24 / chroma_me=1 / trellis=2 / 8x8dct=1 / cqm=0 / deadzone=21,11 / fast_pskip=1 / chroma_qp_offset=-3 / threads=34 / lookahead_threads=5 / sliced_threads=0 / nr=150 / decimate=1 / interlaced=0 / bluray_compat=0 / constrained_intra=0 / bframes=8 / b_pyramid=2 / b_adapt=2 / b_bias=0 / direct=3 / weightb=1 / open_gop=0 / weightp=2 / keyint=120 / keyint_min=61 / scenecut=0 / intra_refresh=0 / rc_lookahead=120 / rc=crf / mbtree=1 / crf=18.0 / qcomp=0.60 / qpmin=0 / qpmax=69 / qpstep=4 / vbv_maxrate=15000 / vbv_bufsize=31250 / crf_max=0.0 / nal_hrd=vbr / filler=0 / ip_ratio=1.40 / aq=3:1.00
Language                    : English
Default                     : Yes
Forced                      : No
Color range                 : Limited
Color primaries             : BT.709
Transfer characteristics    : BT.709
Matrix coefficients         : BT.709

Audio #1
ID                          : 2
Format                      : AC-3
Format/Info                 : Audio Coding 3
Mode extension              : CM (complete main)
Format settings, Endianness : Big
Codec ID                    : A_AC3
Duration                    : 1 h 29 min
Bit rate mode               : Constant
Bit rate                    : 384 kb/s
Channel(s)                  : 6 channels
Channel positions           : Front: L C R, Side: L R, LFE
Sampling rate               : 48.0 kHz
Frame rate                  : 31.250 FPS (1536 spf)
Bit depth                   : 16 bits
Compression mode            : Lossy
Stream size                 : 246 MiB (3%)
Title                       : AC3 5.1 @ 384 kbps - DVO, НТВ
Language                    : Russian
Default                     : No
Forced                      : No

Audio #2
ID                          : 3
Format                      : AC-3
Format/Info                 : Audio Coding 3
Mode extension              : CM (complete main)
Format settings, Endianness : Big
Codec ID                    : A_AC3
Duration                    : 1 h 29 min
Bit rate mode               : Constant
Bit rate                    : 256 kb/s
Channel(s)                  : 2 channels
Channel positions           : Front: L R
Sampling rate               : 48.0 kHz
Frame rate                  : 31.250 FPS (1536 spf)
Bit depth                   : 16 bits
Compression mode            : Lossy
Stream size                 : 164 MiB (2%)
Title                       : AC3 2.0 @ 192 kbps - MVO, Хлопушка
Language                    : Russian
Default                     : No
Forced                      : No

Audio #3
ID                          : 4
Format                      : E-AC-3
Format/Info                 : Enhanced Audio Coding 3
Format settings, Endianness : Big
Codec ID                    : A_EAC3
Duration                    : 1 h 29 min
Bit rate mode               : Constant
Bit rate                    : 224 kb/s
Channel(s)                  : 2 channels
Channel positions           : Front: L R
Sampling rate               : 48.0 kHz
Frame rate                  : 187.500 FPS (256 spf)
Compression mode            : Lossy
Stream size                 : 144 MiB (2%)
Title                       : E-AC3 2.0 @ 224 kbps - Original
Language                    : English
Default                     : No
Forced                      : No

Text
ID                          : 5
Format                      : UTF-8
Codec ID                    : S_TEXT/UTF8
Codec ID/Info               : UTF-8 Plain Text
Language                    : Russian
Default                     : No
Forced                      : No



Скриншоты:
[+] Всего файлов в раздаче - 1:
Yankee Zulu.(1993).WEBRip.1080p.mkv8.78 GB

Показать еще раздачи по запросу невероятные:
2018-10-06 U Невероятные приключения Факира / The Extraordinary Journey of the Fakir (2018) BDRip 1080p | iTunes 7.78 GB ↑ 218 ↓ 86
2018-10-06 U Невероятные приключения Факира / The Extraordinary Journey of the Fakir (2018) BDRip от MegaPeer | iTunes 1.42 GB ↑ 361 ↓ 68
2018-10-05 U Невероятные приключения Факира / The Extraordinary Journey of the Fakir (2018) BDRip 720p | iTunes 4.62 GB ↑ 288 ↓ 36
2018-10-02 U Невероятные приключения Факира / The Extraordinary Journey of the Fakir (2018) WEB-DL 1080p | iTunes 3.31 GB ↑ 703 ↓ 205
2018-09-30 U Невероятные приключения Факира / The Extraordinary Journey of the Fakir (2018) WEB-DLRip от MegaPeer | iTunes 1.46 GB ↑ 883 ↓ 255
2018-06-27 U Невероятные приключения ДжоДжо / JoJo's Bizarre Adventure: Diamond Is Unbreakable 1 (2017) BDRip-AVC | L 1К1.13 GB ↑ 22 ↓ 8
2017-12-25 U Невероятные приключения Алины Троянской [01-04 из 04] (2014) WEB-DLRip-AVC от Files-x 4.47 GB ↑ 210 ↓ 96

Отзывы
Зарегистрируйтесь чтобы добавить комментарий.
Обратная связь
Copyleft ©