↑↓Torrent.by
Поиск
Логин: Регистрация
Пароль: Восстановить пароль
Загрузка...

Кровь за кровь (1991) SATRip-AVC от KORSAR

Скачать krov-za-1991-satrip-avc-ot-korsar.torrent
U Магнитная ссылка Размер: 1.83 GB Раздают: 41 Качают: 10 Добавлен: 2018-05-25 05:36:18
Кровь за кровь (1991) SATRip-AVC от KORSAR

Название: Кровь за кровь
Год выпуска: 1991
Жанр:  Детектив
Режиссер: Юрий Колчеев
В ролях: Александр Фатюшин, Ирина Алферова, Борис Галкин, Николай Кочегаров, Михаил Глузский, Любовь Соколова, Борис Новиков, Александр Мовчан, Александр Гриневич, Вадим Померанцев, Елена Катышева, Артем Каминский, Вера Альховская, Александр Домогаров, Кирилл Столяров, Алла Иванова

Описание: Сюжет фильма основан на реальном уголовном деле, когда несколько лет назад шайка преступников убивала видных военачальников с целью кражи их боевых наград. Совершено убийство отставного генерала, а его квартира ограблена. Майор милиции Таганцев выходит на наводчиков бандитов. Но вору-рецидивисту по кличке Валек удается переиграть сыщика. Группе Таганцева придется основательно потрудиться, чтобы поймать рецидивиста в городе у моря Ялте.

Выпущено: СССР
Продолжительность: 01:33:46
Перевод: Не требуется

Файл
Кодек: х264
Качество: SATRip-AVC
Видео: MPEG-4 AVC, 698x572@744x572, 2547 Кбит/с, 25.000 Кадр/с
Аудио: AC3, 2 ch, 192 Кбит/с
Субтитры: Нет

Релиз:
[+] MediaInfo
Общее
Уникальный идентификатор                 : 192388880768450523548152760558499995902 (0x90BCC02A33064F4C9CE7DF8C4E0520FE)
Полное имя                               : Кровь за кровь_1991-SATRip-AVC_KORSAR.mkv
Формат                                   : Matroska
Версия формата                           : Version 2
Размер файла                             : 1,83 Гбайт
Продолжительность                        : 1 ч. 33 м.
Общий поток                              : 2794 Кбит/сек
Название фильма                          : Кровь за кровь_1991-SATRip-AVC_KORSAR
Дата кодирования                         : UTC 2017-11-16 17:58:11
Программа кодирования                    : mkvmerge v5.8.0 ('No Sleep / Pillow') built on Sep  2 2012 15:37:04
Библиотека кодирования                   : libebml v1.2.3 + libmatroska v1.3.0

Видео
Идентификатор                            : 1
Формат                                   : AVC
Формат/Информация                        : Advanced Video Codec
Профиль формата                          : High@L4.1
Параметр CABAC формата                   : Да
Параметр RefFrames формата               : 15 кадров
Идентификатор кодека                     : V_MPEG4/ISO/AVC
Продолжительность                        : 1 ч. 33 м.
Битрейт                                  : 2547 Кбит/сек
Ширина                                   : 698 пикселей
Высота                                   : 572 пикселя
Соотношение сторон                       : 4:3
Соотношение сторон в оригинале           : 4:3
Режим частоты кадров                     : Постоянный
Частота кадров                           : 25,000 кадров/сек
Цветовое пространство                    : YUV
Субдискретизация насыщенности            : 4:2:0
Битовая глубина                          : 8 бит
Тип развёртки                            : Прогрессивная
Бит/(Пиксели*Кадры)                      : 0.255
Размер потока                            : 1,67 Гбайт (91%)
Библиотека кодирования                   : x264 core 148 r2744kMod b97ae06
Настройки программы                      : cabac=1 / ref=15 / deblock=1:-2:-1 / analyse=0x3:0x133 / me=umh / subme=10 / psy=1 / fade_compensate=0.00 / psy_rd=1.05:0.10 / mixed_ref=1 / me_range=32 / chroma_me=1 / trellis=2 / 8x8dct=1 / cqm=0 / deadzone=21,11 / fast_pskip=1 / chroma_qp_offset=-3 / threads=12 / lookahead_threads=3 / sliced_threads=0 / nr=0 / decimate=1 / interlaced=0 / bluray_compat=0 / constrained_intra=0 / bframes=10 / b_pyramid=2 / b_adapt=2 / b_bias=0 / direct=1 / weightb=1 / open_gop=0 / weightp=2 / keyint=250 / keyint_min=25 / scenecut=40 / intra_refresh=0 / rc=crf / mbtree=0 / crf=18.0000 / qcomp=0.63 / qpmin=0 / qpmax=39 / qpstep=4 / ip_ratio=1.40 / pb_ratio=1.30 / aq=1:0.80
Язык                                     : English
Default                                  : Да
Forced                                   : Нет
Цветовой диапазон                        : Limited
Основные цвета                           : BT.601 PAL
Характеристики трансфера                 : BT.470 System B, BT.470 System G
Коэффициенты матрицы                     : BT.601

Аудио
Идентификатор                            : 2
Формат                                   : AC-3
Формат/Информация                        : Audio Coding 3
Параметр Endianness формата              : Big
Идентификатор кодека                     : A_AC3
Продолжительность                        : 1 ч. 33 м.
Вид битрейта                             : Постоянный
Битрейт                                  : 192 Кбит/сек
Каналы                                   : 2 канала
Расположение каналов                     : Front: L R
Частота                                  : 48,0 КГц
Частота кадров                           : 31,250 кадров/сек (1536 SPF)
Битовая глубина                          : 16 бит
Метод сжатия                             : С потерями
Размер потока                            : 129 Мбайт (7%)
Язык                                     : Russian
Default                                  : Да
Forced                                   : Нет



[+] x264
x264 [info]: frame I:824 Avg QP:17.34 size: 67300
x264 [info]: frame P:28688 Avg QP:19.13 size: 33303
x264 [info]: frame B:111149 Avg QP:21.10 size: 7361



Скриншоты:
[+] Всего файлов в раздаче - 1:
Кровь за кровь_1991-SATRip-AVC_KORSAR.mkv1.83 GB

Текущая раздача:
ДатаКомментарии    РазмерПиры
2018-05-25 U Кровь за кровь (1991) SATRip-AVC от KORSAR 1.83 GB ↑ 41 ↓ 10

Показать еще раздачи по запросу кровь:
2018-06-17 U Преступная кровь / Blood Crime (2002) DVDRip | P 820.98 MB ↑ 35 ↓ 15
2018-06-06 U Саамская кровь / Sameblod / Sami Blood (2016) WEB-DLRip 720p | P 1.85 GB ↑ 26 ↓ 5
2018-03-10 U Кровь ангела [01-04 из 04] (2018) WEBRip от GeneralFilm 1.46 GB ↑ 62 ↓ 25
2018-03-09 U Кровь ангела [01-04 из 04] (2018) WEBRip от Files-x 2.34 GB ↑ 75 ↓ 72
2018-03-09 U Кровь ангела [01-04 из 04] (2018) WEBRip-AVC от Files-x 2.35 GB ↑ 91 ↓ 84
2018-02-14 U День мертвецов: Злая кровь / Day of the Dead: Bloodline (2018) HDRip-AVC от ExKinoRay | iTunes 743.81 MB ↑ 56 ↓ 11
2018-02-12 U День мертвецов: Злая кровь / Day of the Dead: Bloodline (2018) WEB-DL 1080p | iTunes 3.07 GB ↑ 174 ↓ 131

Отзывы
Зарегистрируйтесь чтобы добавить комментарий.
Обратная связь
Copyleft ©