↑↓Torrent.by
Поиск
Логин: Регистрация
Пароль: Восстановить пароль
Загрузка...

Закрой глаза (2015) WEB-DL 1080р от KORSAR | iTunes

Скачать zakroy-glaza-2015-web-dl-1080r-ot-korsar-itunes.torrent
U Магнитная ссылка Размер: 3.65 GB Раздают: 68 Качают: 9 Добавлен: 2018-05-26 05:43:49
Закрой глаза (2015) WEB-DL 1080р от KORSAR | iTunes

Информация о фильме
Название: Закрой глаза / Ночник
Год выпуска: 2015
Жанр:  Фэнтези, мистика, драма
Выпущено: Россия, Proline Film
Продолжительность: 01:46:33
Перевод: Не требуется
Режиссер: Ольга Субботина
В ролях: Гоша Бондарев, Софья Хилькова, Светлана Иванова, Анатолий Белый, Юрки Линнанкиви, Анна Хилькевич, Валентина Талызина, Нина Корниенко, Мириам Сехон, Наталия Моргунова

О фильме
Загадочный ночной гость-призрак, рожденный фантазией маленького мальчика, умеет превратить каждую ночь в захватывающее приключение и стать мальчику другом, учителем и проводником в новые миры.

Файл
Качество: WEB-DL 1080p
Видео: MPEG-4 AVC, 1920х810, 4425 Кбит/с, 24.000 Кадр/с
Аудио: АС3, 6 ch, 384 Кбит/с
Субтитры: Нет
Навигация по главам: Есть

Релиз:


[+] Интересно
• По мотивам сказки Ганса Христиана Андерсена «Оле-Лукойе». Специально для фильма финский композитор Джони Ли Майкл написал песни «Сайонара», «В твоих снах» и «Закрой глаза». Все они были записаны группой «The 69 Eyes» на студии в Финляндии.



[+] MediaInfo
Общее
Уникальный идентификатор                 : 225725032915329609768295083013288859000 (0xA9D10F5CBEFEAE4FADADEBDBD1F59578)
Полное имя                               : Закрой глаза.2015.WEB-DL.1080p.mkv
Формат                                   : Matroska
Версия формата                           : Version 2
Размер файла                             : 3,65 Гбайт
Продолжительность                        : 1 ч. 46 м.
Общий поток                              : 4907 Кбит/сек
Дата кодирования                         : UTC 2017-08-30 13:53:08
Программа кодирования                    : mkvmerge v7.8.0 ('River Man') 32bit built on Mar 27 2015 16:18:02
Библиотека кодирования                   : libebml v1.3.1 + libmatroska v1.4.2

Видео
Идентификатор                            : 1
Формат                                   : AVC
Формат/Информация                        : Advanced Video Codec
Профиль формата                          : High@L4
Параметр CABAC формата                   : Да
Параметр RefFrames формата               : 5 кадров
Идентификатор кодека                     : V_MPEG4/ISO/AVC
Продолжительность                        : 1 ч. 46 м.
Битрейт                                  : 4425 Кбит/сек
Ширина                                   : 1920 пикселей
Высота                                   : 810 пикселей
Соотношение сторон                       : 2,40:1
Режим частоты кадров                     : Постоянный
Частота кадров                           : 24,000 кадра/сек
Цветовое пространство                    : YUV
Субдискретизация насыщенности            : 4:2:0
Битовая глубина                          : 8 бит
Тип развёртки                            : Прогрессивная
Бит/(Пиксели*Кадры)                      : 0.119
Размер потока                            : 3,29 Гбайт (90%)
Заголовок                                : Закрой глаза.WEB-DL.1080p
Язык                                     : Russian
Default                                  : Да
Forced                                   : Нет
Цветовой диапазон                        : Limited
Основные цвета                           : BT.709
Характеристики трансфера                 : BT.709
Коэффициенты матрицы                     : BT.709

Аудио
Идентификатор                            : 2
Формат                                   : AC-3
Формат/Информация                        : Audio Coding 3
Параметр Endianness формата              : Big
Идентификатор кодека                     : A_AC3
Продолжительность                        : 1 ч. 46 м.
Вид битрейта                             : Постоянный
Битрейт                                  : 384 Кбит/сек
Каналы                                   : 6 каналов
Расположение каналов                     : Front: L C R, Side: L R, LFE
Частота                                  : 48,0 КГц
Частота кадров                           : 31,250 кадров/сек (1536 SPF)
Битовая глубина                          : 16 бит
Метод сжатия                             : С потерями
Размер потока                            : 293 Мбайт (8%)
Заголовок                                : iTunes
Язык                                     : Russian
Default                                  : Да
Forced                                   : Нет

Меню
00:00:00.000                             : ru:Глава 1
00:04:37.458                             : ru:Глава 2
00:11:01.166                             : ru:Глава 3
00:15:51.041                             : ru:Глава 4
00:21:31.457                             : ru:Глава 5
00:26:17.498                             : ru:Глава 6
00:31:26.956                             : ru:Глава 7
00:37:19.164                             : ru:Глава 8
00:44:03.205                             : ru:Глава 9
00:51:10.538                             : ru:Глава 10
01:01:20.079                             : ru:Глава 11
01:07:50.620                             : ru:Глава 12
01:13:34.786                             : ru:Глава 13
01:20:58.161                             : ru:Глава 14
01:25:33.286                             : ru:Глава 15
01:32:33.869                             : ru:Глава 16



Скриншоты:
[+] Всего файлов в раздаче - 1:
Закрой глаза_2016-WEBDLRip 1080p.mkv3.65 GB

Текущая раздача:
ДатаКомментарии    РазмерПиры
2018-05-26 U Закрой глаза (2015) WEB-DL 1080р от KORSAR | iTunes 3.65 GB ↑ 68 ↓ 9

Похожие раздачи по запросу - закрой:
2018-05-28 U Закрой глаза (2015) WEB-DLRip от Portablius | iTunes 1.37 GB ↑ 42 ↓ 14
2013-11-24 U Закрой мои глаза / Close My Eyes (1991) DVDRip 1.61 GB ↑ 656 ↓ 76

Отзывы
Зарегистрируйтесь чтобы добавить комментарий.
Обратная связь
Copyleft ©