↑↓Torrent.by
Поиск
Логин: Регистрация
Пароль: Восстановить пароль
Загрузка...

Кодекс бесчестия (1993) DVDRip-AVC от KORSAR

Скачать kodeks-beschestiya-1993-dvdrip-avc-ot-korsar.torrent
U Магнитная ссылка Размер: 2.33 GB Раздают: 49 Качают: 5 Добавлен: 2018-05-27 09:10:41
Кодекс бесчестия (1993) DVDRip-AVC от KORSAR

Название: Кодекс бесчестия
Год выпуска: 1993
Жанр:  Детектив
Режиссёр: Всеволод Шиловский
В ролях: Андрей Болтнев, Игорь Костолевский, Татьяна Васильева (I), Леонид Куравлёв, Вероника Изотова, Борис Щербаков, Вячеслав Тихонов, Вячеслав Езепов, Эммануил Виторган, Виктор Черняк, Людмила Чурсина, Станислав Садальский, Юрий Назаров, Любовь Манц, Всеволод Ларионов, Алина Покровская, Александр Пашутин, Валерий Смецкой, Александр Жигалкин, Игорь Ливанов, Руслан Ахметов, Михаил Бочаров, Шавкат Газиев, Валерий Классен, Олег Калашников, Павел Махотин, Владимир Привалов, Вероника Сухенко, Леонид Александров, Виктор Ветров, Игорь Класс, Виктор Каюков, Владимир Мащенко, Владимир Никитин, Сергей Сазонтьев, Александр Свистунов, Александр Юшин, Всеволод Шиловский

О фильме: Действие фильма происходит в последние годы существования СССР. Молодой начинающий сотрудник Госбанка Сергей Ребров вовсю старается угодить своему начальнику, всемогущему директору Тихону Степановичу по прозвищу «Мастодонт», и не понимает, почему все спрашивают, кто за ним стоит. В своей первой загранпоездке в шикарный Париж Мастодонт объясняет неопытному простофиле, как делаются дела в высших эшелонах власти. Мало того, Тихон Степанович почему-то хочет отдать Сергею тепленькое местечко в стране шоколада и банков, расталкивая при этом всех конкурентов локтями. Вот только остается вопрос, зачем он это делает? Сергею предстоит скоро сделать выбор - жить честно или стать тем, для которых всегда все остается «по-старому».

Выпущено: Россия, Акво
Продолжительность: 02:22:57
Перевод: Не требуется

Файл
Качество: DVDRip-AVC
Видео: MPEG-4 AVC, 698x572@760x572, 2099 Кбит/с, 25.000 Кадр/с
Аудио: AC3, 2 ch, 192 Кбит/с
Субтитры: Нет

Релиз:
[+] MediaInfo
Общее
Уникальный идентификатор                 : 185939585730500438273304400313049883919 (0x8BE2A95EA70B8E6DA07412EF7C3F250F)
Полное имя                               : Кодекс бесчестия_1993-DVDRip-AVC.KORSAR.mkv
Формат                                   : Matroska
Версия формата                           : Version 2
Размер файла                             : 2,33 Гбайт
Продолжительность                        : 2 ч. 22 м.
Общий поток                              : 2337 Кбит/сек
Дата кодирования                         : UTC 2017-08-11 02:36:42
Программа кодирования                    : mkvmerge v5.8.0 ('No Sleep / Pillow') built on Sep  2 2012 15:37:04
Библиотека кодирования                   : libebml v1.2.3 + libmatroska v1.3.0

Видео
Идентификатор                            : 1
Формат                                   : AVC
Формат/Информация                        : Advanced Video Codec
Профиль формата                          : High@L4.1
Параметр CABAC формата                   : Да
Параметр RefFrames формата               : 13 кадров
Идентификатор кодека                     : V_MPEG4/ISO/AVC
Продолжительность                        : 2 ч. 22 м.
Битрейт                                  : 2099 Кбит/сек
Ширина                                   : 698 пикселей
Высота                                   : 572 пикселя
Соотношение сторон                       : 4:3
Режим частоты кадров                     : Постоянный
Частота кадров                           : 25,000 кадров/сек
Цветовое пространство                    : YUV
Субдискретизация насыщенности            : 4:2:0
Битовая глубина                          : 8 бит
Тип развёртки                            : Прогрессивная
Бит/(Пиксели*Кадры)                      : 0.210
Размер потока                            : 2,10 Гбайт (90%)
Библиотека кодирования                   : x264 core 148 r2744kMod b97ae06
Настройки программы                      : cabac=1 / ref=13 / deblock=1:-2:-1 / analyse=0x3:0x133 / me=umh / subme=10 / psy=1 / fade_compensate=0.00 / psy_rd=1.05:0.10 / mixed_ref=1 / me_range=32 / chroma_me=1 / trellis=2 / 8x8dct=1 / cqm=0 / deadzone=21,11 / fast_pskip=1 / chroma_qp_offset=-3 / threads=12 / lookahead_threads=2 / sliced_threads=0 / nr=0 / decimate=1 / interlaced=0 / bluray_compat=0 / constrained_intra=0 / bframes=9 / b_pyramid=2 / b_adapt=2 / b_bias=0 / direct=1 / weightb=1 / open_gop=0 / weightp=2 / keyint=250 / keyint_min=25 / scenecut=40 / intra_refresh=0 / rc=crf / mbtree=0 / crf=18.0000 / qcomp=0.63 / qpmin=0 / qpmax=39 / qpstep=4 / ip_ratio=1.40 / pb_ratio=1.30 / aq=1:1.00
Язык                                     : English
Default                                  : Да
Forced                                   : Нет
Цветовой диапазон                        : Limited
Основные цвета                           : BT.601 PAL
Характеристики трансфера                 : BT.470 System B, BT.470 System G
Коэффициенты матрицы                     : BT.601

Аудио
Идентификатор                            : 2
Формат                                   : AC-3
Формат/Информация                        : Audio Coding 3
Параметр Endianness формата              : Big
Идентификатор кодека                     : A_AC3
Продолжительность                        : 2 ч. 22 м.
Вид битрейта                             : Постоянный
Битрейт                                  : 192 Кбит/сек
Каналы                                   : 2 канала
Расположение каналов                     : Front: L R
Частота                                  : 48,0 КГц
Частота кадров                           : 31,250 кадров/сек (1536 SPF)
Битовая глубина                          : 16 бит
Метод сжатия                             : С потерями
Размер потока                            : 196 Мбайт (8%)
Язык                                     : Russian
Default                                  : Да
Forced                                   : Нет



Скриншоты:
[+] Всего файлов в раздаче - 1:
Кодекс бесчестия_1993-DVDRip-AVC.mkv2.33 GB

Текущая раздача:
ДатаКомментарии    РазмерПиры
2018-05-27 U Кодекс бесчестия (1993) DVDRip-AVC от KORSAR 2.33 GB ↑ 49 ↓ 5

Показать еще раздачи по запросу кодекс:
2018-09-02 U Кодекс Готти / Gotti (2018) BDRemux 1080p | D, Р 16.28 GB ↑ 35 ↓ 17
2018-09-01 U Кодекс Готти / Gotti (2018) BDRip-AVC от ivanes20031987 | iTunes 744.90 MB ↑ 53 ↓ 8
2018-08-31 U Кодекс Готти / Gotti (2018) BDRip от ExKinoRay | iTunes 1.41 GB ↑ 114 ↓ 36
2018-08-31 U Кодекс Готти / Gotti (2018) BDRip-AVC от OlLanDGroup | iTunes 1.86 GB ↑ 34 ↓ 11
2018-08-31 U Кодекс Готти / Gotti (2018) BDRip-AVC от Dalemake | D | iTunes 2.71 GB ↑ 48 ↓ 6
2018-08-31 U Кодекс Готти / Gotti (2018) BDRip 720р от Атлас31 | D | iTunes 4.65 GB ↑ 153 ↓ 65
2018-08-31 U Кодекс Готти / Gotti (2018) BDRip от MegaPeer | iTunes 1.41 GB ↑ 174 ↓ 56

Отзывы
Зарегистрируйтесь чтобы добавить комментарий.
Обратная связь
Copyleft ©