↑↓Torrent.by
Поиск
Логин: Регистрация
Пароль: Восстановить пароль
Загрузка...

Отряд особого назначения (1978) HDTVRip 720p от KORSAR

Скачать otryad-osobogo-naznacheniya-1978-hdtvrip-720p-ot-korsar.torrent
U Магнитная ссылка Размер: 3.20 GB Раздают: 70 Качают: 26 Добавлен: 2018-05-27 09:11:03
Отряд особого назначения (1978) HDTVRip 720p от KORSAR

Название: Отряд особого назначения
Год выхода: 1978
Жанр:  Приключения, военный
Режиссер: Вадим Лысенко
В ролях: Леонхард Мерзин, Павел Ремезов, Улдис Пуцитис, Элгуджа Бурдули, Сергей Иванов, Марина Трошина, Юрий Пузырёв, Улдис Лиелдидж, Олгерт Кродерс, Олег Федуло

Описание: Разведдиверсионная группа из спортсменов, умеющих снайперски стрелять, бегать, прыгать, свободно чувствовать себя в воде и под водой, выдерживать чудовищную нагрузку рукопашных схваток, сможет добраться до цели только идя вместе, передавая задание как эстафету.Их семеро. Среди них девушка  пловчиха. Ей предстоит самый сложный, последний этап пути. В основе сюжета реальные факты Великой Отечественной войны.

Выпущено: СССР
Производство: Одесская киностудия
Продолжительность: 01:12:10
Перевод: Не требуется

Файл
Кодек: х264
Качество: HDTVRip 720p
Видео: MPEG-4 AVC, 1280x578, 25.000 fps, 6029 Кбит/с
Звук: AC3, 2 ch, 192 Кбит/с
Субтитры: Нет

Релиз:
[+] MediaInfo
Общее
Уникальный идентификатор                 : 184438196731492793190387711391043126960 (0x8AC1812D4B840912A466954A785786B0)
Полное имя                               : Отряд особого назначения_1978-HDTVRip 720p.KORSAR.mkv
Формат                                   : Matroska
Версия формата                           : Version 2
Размер файла                             : 3,20 Гбайт
Продолжительность                        : 1 ч. 12 м.
Общий поток                              : 6348 Кбит/сек
Дата кодирования                         : UTC 2017-07-29 16:23:02
Программа кодирования                    : mkvmerge v5.8.0 ('No Sleep / Pillow') built on Sep  2 2012 15:37:04
Библиотека кодирования                   : libebml v1.2.3 + libmatroska v1.3.0

Видео
Идентификатор                            : 1
Формат                                   : AVC
Формат/Информация                        : Advanced Video Codec
Профиль формата                          : High@L4.1
Параметр CABAC формата                   : Да
Параметр ReFrames формата                : 11 кадров
Идентификатор кодека                     : V_MPEG4/ISO/AVC
Продолжительность                        : 1 ч. 12 м.
Битрейт                                  : 6029 Кбит/сек
Ширина                                   : 1280 пикселей
Высота                                   : 578 пикселей
Соотношение сторон                       : 2,2:1
Режим частоты кадров                     : Постоянный
Частота кадров                           : 25,000 кадров/сек
Цветовое пространство                    : YUV
Субдискретизация насыщенности            : 4:2:0
Битовая глубина                          : 8 бит
Тип развёртки                            : Прогрессивная
Бит/(Пиксели*Кадры)                      : 0.326
Размер потока                            : 3,04 Гбайт (95%)
Заголовок                                : Отряд особого назначения_1978-HDTVRip 720p
Библиотека кодирования                   : x264 core 148 r2744kMod b97ae06
Настройки программы                      : cabac=1 / ref=11 / deblock=1:-2:-2 / analyse=0x3:0x113 / me=umh / subme=10 / psy=1 / fade_compensate=0.00 / psy_rd=1.03:0.10 / mixed_ref=1 / me_range=32 / chroma_me=1 / trellis=2 / 8x8dct=1 / cqm=0 / deadzone=21,11 / fast_pskip=1 / chroma_qp_offset=-3 / threads=12 / lookahead_threads=2 / sliced_threads=0 / nr=0 / decimate=1 / interlaced=0 / bluray_compat=0 / constrained_intra=0 / bframes=9 / b_pyramid=2 / b_adapt=2 / b_bias=0 / direct=1 / weightb=1 / open_gop=0 / weightp=2 / keyint=250 / keyint_min=25 / scenecut=40 / intra_refresh=0 / rc=crf / mbtree=0 / crf=17.8000 / qcomp=0.63 / qpmin=0 / qpmax=39 / qpstep=4 / ip_ratio=1.40 / pb_ratio=1.30 / aq=2:0.90
Язык                                     : English
Default                                  : Да
Forced                                   : Нет
Цветовой диапазон                        : Limited
Основные цвета                           : BT.709
Характеристики трансфера                 : BT.709
Коэффициенты матрицы                     : BT.709

Аудио
Идентификатор                            : 2
Формат                                   : AC-3
Формат/Информация                        : Audio Coding 3
Параметр Endianness формата              : Big
Идентификатор кодека                     : A_AC3
Продолжительность                        : 1 ч. 12 м.
Вид битрейта                             : Постоянный
Битрейт                                  : 192 Кбит/сек
Каналы                                   : 2 канала
Расположение каналов                     : Front: L R
Частота                                  : 48,0 КГц
Частота кадров                           : 31,250 кадров/сек (1536 spf)
Битовая глубина                          : 16 бит
Метод сжатия                             : С потерями
Размер потока                            : 99,1 Мбайт (3%)
Язык                                     : Russian
Default                                  : Да
Forced                                   : Нет



Скриншоты:
[+] Всего файлов в раздаче - 1:
Отряд особого назначения_1978-HDTVRip 720p.mkv3.20 GB

Текущая раздача:
ДатаКомментарии    РазмерПиры
2018-05-27 U Отряд особого назначения (1978) HDTVRip 720p от KORSAR 3.20 GB ↑ 70 ↓ 26

Показать еще раздачи по запросу отряд:
2018-08-28 U Звездный отряд: Война на Марсе / Crimson Force (2005) WEB-DLRip 1080p | P 5.06 GB ↑ 44 ↓ 49
2018-04-17 U Отряд самоубийц: Строгое наказание / Suicide Squad: Hell to Pay (2018) BDRip 1080p | Flarrow Films 5.20 GB ↑ 92 ↓ 24
2018-04-07 U Отряд самоубийц: Строгое наказание / Suicide Squad: Hell to Pay (2018) WEBRip от Portablius | Flarrow Films 698.00 MB ↑ 77 ↓ 14
2018-04-05 U Отряд самоубийц: Строгое наказание / Suicide Squad: Hell to Pay (2018) WEBRip 720p | Flarrow Films 2.91 GB ↑ 315 ↓ 58
2018-03-31 U Отряд самоубийц: Строгое наказание. / Suicide Squad: Hell to Pay (2018) WEBRip 720p | ZM-SHOW 1.95 GB ↑ 119 ↓ 96
2018-03-13 U Паранормальный отряд / Ghost Team (2016) WEB-DL 1080p | iTunes 3.16 GB ↑ 241 ↓ 56
2018-03-12 U Паранормальный отряд / Ghost Team (2016) WEB-DLRip | iTunes 1.37 GB ↑ 310 ↓ 92

Отзывы
Зарегистрируйтесь чтобы добавить комментарий.
Обратная связь
Copyleft ©