↑↓Torrent.by
Поиск
Логин: Регистрация
Пароль: Восстановить пароль
Загрузка...

Берега в тумане (1985) SATRip-AVC от KORSAR

Скачать berega-v-tumane-1985-satrip-avc-ot-korsar.torrent
U Магнитная ссылка Размер: 1.82 GB Раздают: 51 Качают: 16 Добавлен: 2018-05-27 16:12:36
Берега в тумане (1985) SATRip-AVC от KORSAR

Название: Берега в тумане
Год выпуска: 1985
Жанр:  Драма, киноповесть
Режиссёр: Юлий Карасик
В ролях: Алексей Жарков, Анатолий Кузнецов, Ирина Купченко, Николай Олялин, Борис Токарев, Борис Щербаков, Сергей Юрский, Леонид Филатов, Михаил Погоржельский, Валерий Бабятинский, Алексей Волков, Любовь Виролайнен ст., Борис Луканов, Таня Димитрова, Петер Батаклиев, Стефан Данаилов, Геннадий Сайфулин, Валерий Хлевинский

О фильме: Осенью 1921 года остатки разгромленной врангелевской армии после недолгого пребывания в Турции находят прибежище в Болгарии. Белогвардейский полковник Сергей Егорьев живет здесь с сыном и дочерью. Его жену и младшую дочь, потерявшихся в Севастополе, приютила семья большевика Дмитрия Шелопугина, который теперь направляется в Болгарию для агитационной работы среди русских солдат. Крупномасштабные съемки проводились в Болгарии. Интересный факт: актер Леонид Филатов постоянно летал из Болгарии в Лондон на съемки в главной роли в другом двухсерийном фильме "Чичерин". Считается, что именно в этот год Филатов подорвал здоровье.

Выпущено: СССР, Болгария, Мосфильм, Boyana Film, Bulgaria Film, Bulgarian People's Army Film Studio
Продолжительность: 2 x ~ 01:08:15
Перевод: Не требуется

Файл
Кодек: х264
Качество: SATRip-AVC
Видео: MPEG-4 AVC, 698x574@765x574, 1686 Кбит/с, 25.000 Кадр/с
Аудио: AC3, 2 ch, 192 Кбит/с
Субтитры: Нет

Релиз:
[+] MediaInfo
Общее
Уникальный идентификатор                 : 228612242409556795901622999836192816723 (0xABFD1DC7DE7271239B392DD42D3A3E53)
Полное имя                               : Берега в тумане_1985-SATRip-AVC.KORSAR.Берега-1.mkv
Формат                                   : Matroska
Версия формата                           : Version 2
Размер файла                             : 860 Мбайт
Продолжительность                        : 1 ч. 2 м.
Общий поток                              : 1917 Кбит/сек
Дата кодирования                         : UTC 2017-09-16 15:52:37
Программа кодирования                    : mkvmerge v5.8.0 ('No Sleep / Pillow') built on Sep  2 2012 15:37:04
Библиотека кодирования                   : libebml v1.2.3 + libmatroska v1.3.0

Видео
Идентификатор                            : 1
Формат                                   : AVC
Формат/Информация                        : Advanced Video Codec
Профиль формата                          : High@L4.1
Параметр CABAC формата                   : Да
Параметр RefFrames формата               : 14 кадров
Идентификатор кодека                     : V_MPEG4/ISO/AVC
Продолжительность                        : 1 ч. 2 м.
Битрейт                                  : 1686 Кбит/сек
Ширина                                   : 698 пикселей
Высота                                   : 574 пикселя
Соотношение сторон                       : 4:3
Соотношение сторон в оригинале           : 4:3
Режим частоты кадров                     : Постоянный
Частота кадров                           : 25,000 кадров/сек
Цветовое пространство                    : YUV
Субдискретизация насыщенности            : 4:2:0
Битовая глубина                          : 8 бит
Тип развёртки                            : Прогрессивная
Бит/(Пиксели*Кадры)                      : 0.168
Размер потока                            : 756 Мбайт (88%)
Библиотека кодирования                   : x264 core 148 r2744kMod b97ae06
Настройки программы                      : cabac=1 / ref=14 / deblock=1:-2:-1 / analyse=0x3:0x133 / me=umh / subme=10 / psy=1 / fade_compensate=0.00 / psy_rd=1.05:0.10 / mixed_ref=1 / me_range=32 / chroma_me=1 / trellis=2 / 8x8dct=1 / cqm=0 / deadzone=21,11 / fast_pskip=1 / chroma_qp_offset=-3 / threads=12 / lookahead_threads=3 / sliced_threads=0 / nr=0 / decimate=1 / interlaced=0 / bluray_compat=0 / constrained_intra=0 / bframes=10 / b_pyramid=2 / b_adapt=2 / b_bias=0 / direct=1 / weightb=1 / open_gop=0 / weightp=2 / keyint=250 / keyint_min=25 / scenecut=40 / intra_refresh=0 / rc=crf / mbtree=0 / crf=18.0000 / qcomp=0.63 / qpmin=0 / qpmax=39 / qpstep=4 / ip_ratio=1.40 / pb_ratio=1.30 / aq=1:1.00
Язык                                     : English
Default                                  : Да
Forced                                   : Нет
Цветовой диапазон                        : Limited
Основные цвета                           : BT.601 PAL
Характеристики трансфера                 : BT.470 System B, BT.470 System G
Коэффициенты матрицы                     : BT.601

Аудио
Идентификатор                            : 2
Формат                                   : AC-3
Формат/Информация                        : Audio Coding 3
Параметр Endianness формата              : Big
Идентификатор кодека                     : A_AC3
Продолжительность                        : 1 ч. 2 м.
Вид битрейта                             : Постоянный
Битрейт                                  : 192 Кбит/сек
Каналы                                   : 2 канала
Расположение каналов                     : Front: L R
Частота                                  : 48,0 КГц
Частота кадров                           : 31,250 кадров/сек (1536 SPF)
Битовая глубина                          : 16 бит
Метод сжатия                             : С потерями
Задержка видео                           : 19 мс.
Размер потока                            : 86,1 Мбайт (10%)
Язык                                     : Russian
Default                                  : Да
Forced                                   : Нет



Скриншоты:
[+] Всего файлов в раздаче - 2:
Берега-2.mkv999.64 MB
Берега-1.mkv859.66 MB

Текущая раздача:
ДатаКомментарии    РазмерПиры
2018-05-27 U Берега в тумане (1985) SATRip-AVC от KORSAR 1.82 GB ↑ 51 ↓ 16

Показать еще раздачи по запросу берега:
2017-08-23 U Сборник - Берега: Сборник Шансона и Авторской Лирики (2017) MP3 1.36 GB ↑ 316 ↓ 63
2017-06-26 U Пальмовые берега 2 (2017) HDTV 720p 584.51 MB ↑ 188 ↓ 31
2015-11-29 U Семён Слепынин – Звёздные берега (2015) MP3 297.88 MB ↑ 896 ↓ 49
2013-12-24 U Берега [01-02 из 02] (2013) WEB-DLRip (AVC) от MegaPeer 2.47 GB ↑ 32 ↓ 23
2013-12-21 U Берега (2013) SATRip от РиперАМ 2.01 GB ↑ 67 ↓ 143
2013-11-08 U Берега моей мечты [01-09 из 12] (2013) SATRip от Files-x 4.84 GB ↑ 44 ↓ 106
2013-11-08 U Берега моей мечты [01-12 из 12] (2013) SATRip от РиперАМ 6.02 GB ↑ 95 ↓ 279

Отзывы
Зарегистрируйтесь чтобы добавить комментарий.
Обратная связь
Copyleft ©