↑↓Torrent.by
Поиск
Логин: Регистрация
Пароль: Восстановить пароль
Загрузка...

Спортлото-82 (1982) WEBRip-AVC от KORSAR | Широкоэкранная версия

Скачать sportloto-82-1982-webrip-avc-ot-korsar-shirokoekrannaya-versiya.torrent
U Магнитная ссылка Размер: 1.99 GB Раздают: 82 Качают: 51 Добавлен: 2018-05-27 16:12:44
Спортлото-82 (1982) WEBRip-AVC от KORSAR | Широкоэкранная версия

Название: Спортлото-82
Год выпуска: 1982
Жанр:  Комедия, приключения
Режиссёр: Леонид Гайдай
В ролях: Альгис Арлаускас, Светлана Аманова, Михаил Пуговкин, Михаил Кокшенов, Денис Кмит, Нина Гребешкова, Андрей Толшин, Борислав Брондуков, Луиза Мосендз, Сергей Филиппов

Описание: На один из билетов «Спортлото» выпадает крупный выигрыш. Однако билет оказывается потерянным. В поисках его герои попадают во множество занятных переделок, над которыми зритель веселится от души.

Страна: СССР
Студия: Мосфильм
Продолжительность: 01:29:10
Перевод: Не требуется

Файл
Кодек: х264
Качество: WEBRip-AVC
Видео: MPEG-4 AVC, 720x432@1024x432, 25.000 fps, 3000 Кбит/с
Аудио: AC3, 2 ch, 192 Кбит/с
Субтитры: Русские

Релиз:


[+] MediaInfo
Общее
Уникальный идентификатор                 : 217514895748406888122424668013018963943 (0xA3A3D858F23F2A2F87DCA8B5C61F5FE7)
Полное имя                               : Спортлото-82.1982.WEBRip-AVC.KORSAR.mkv
Формат                                   : Matroska
Версия формата                           : Version 2
Размер файла                             : 1,99 Гбайт
Продолжительность                        : 1 ч. 29 м.
Общий поток                              : 3194 Кбит/сек
Дата кодирования                         : UTC 2018-05-26 20:43:28
Программа кодирования                    : mkvmerge v5.8.0 ('No Sleep / Pillow') built on Sep  2 2012 15:37:04
Библиотека кодирования                   : libebml v1.2.3 + libmatroska v1.3.0

Видео
Идентификатор                            : 1
Формат                                   : AVC
Формат/Информация                        : Advanced Video Codec
Профиль формата                          : High@L4.1
Параметр CABAC формата                   : Да
Параметр RefFrames формата               : 13 кадров
Идентификатор кодека                     : V_MPEG4/ISO/AVC
Продолжительность                        : 1 ч. 29 м.
Битрейт                                  : 3000 Кбит/сек
Ширина                                   : 720 пикселей
Высота                                   : 432 пикселя
Соотношение сторон                       : 2,40:1
Режим частоты кадров                     : Постоянный
Частота кадров                           : 25,000 кадров/сек
Цветовое пространство                    : YUV
Субдискретизация насыщенности            : 4:2:0
Битовая глубина                          : 8 бит
Тип развёртки                            : Прогрессивная
Бит/(Пиксели*Кадры)                      : 0.386
Размер потока                            : 1,83 Гбайт (92%)
Библиотека кодирования                   : x264 core 148 r2744kMod b97ae06
Настройки программы                      : cabac=1 / ref=13 / deblock=1:-1:-1 / analyse=0x3:0x133 / me=umh / subme=10 / psy=1 / fade_compensate=0.00 / psy_rd=1.05:0.10 / mixed_ref=1 / me_range=40 / chroma_me=1 / trellis=2 / 8x8dct=1 / cqm=0 / deadzone=21,11 / fast_pskip=0 / chroma_qp_offset=-3 / threads=12 / lookahead_threads=2 / sliced_threads=0 / nr=0 / decimate=0 / interlaced=0 / bluray_compat=0 / constrained_intra=0 / bframes=9 / b_pyramid=2 / b_adapt=2 / b_bias=0 / direct=3 / weightb=1 / open_gop=0 / weightp=2 / keyint=250 / keyint_min=25 / scenecut=40 / intra_refresh=0 / rc=2pass / mbtree=0 / bitrate=3000 / ratetol=1.0 / qcomp=0.63 / qpmin=0 / qpmax=39 / qpstep=4 / cplxblur=20.0 / qblur=0.5 / ip_ratio=1.25 / pb_ratio=1.30 / aq=2:1.00
Язык                                     : English
Default                                  : Да
Forced                                   : Нет

Аудио
Идентификатор                            : 2
Формат                                   : AC-3
Формат/Информация                        : Audio Coding 3
Параметр Endianness формата              : Big
Идентификатор кодека                     : A_AC3
Продолжительность                        : 1 ч. 29 м.
Вид битрейта                             : Постоянный
Битрейт                                  : 192 Кбит/сек
Каналы                                   : 2 канала
Расположение каналов                     : Front: L R
Частота                                  : 48,0 КГц
Частота кадров                           : 31,250 кадров/сек (1536 SPF)
Битовая глубина                          : 16 бит
Метод сжатия                             : С потерями
Размер потока                            : 122 Мбайт (6%)
Язык                                     : Russian
Default                                  : Да
Forced                                   : Нет

Текст
Идентификатор                            : 3
Формат                                   : UTF-8
Идентификатор кодека                     : S_TEXT/UTF8
Идентификатор кодека/Информация          : UTF-8 Plain Text
Язык                                     : Russian
Default                                  : Нет
Forced                                   : Нет

Меню
00:00:00.000                             : en:Chapter 1
00:09:22.080                             : en:Chapter 2
00:15:00.000                             : en:Chapter 3
00:19:48.000                             : en:Chapter 4
00:24:21.120                             : en:Chapter 5
00:30:37.920                             : en:Chapter 6
00:40:01.440                             : en:Chapter 7
00:48:00.960                             : en:Chapter 8
00:54:27.840                             : en:Chapter 9
01:04:01.920                             : en:Chapter 10
01:09:52.320                             : en:Chapter 11
01:18:15.360                             : en:Chapter 12
01:24:04.800                             : en:Chapter 13



Скриншоты:
[+] Всего файлов в раздаче - 1:
Спортлото-82.1982.WEBRip-AVC.KORSAR.mkv1.99 GB

Текущая раздача:
ДатаКомментарии    РазмерПиры
2018-05-27 U Спортлото-82 (1982) WEBRip-AVC от KORSAR | Широкоэкранная версия 1.99 GB ↑ 82 ↓ 51

Похожие раздачи по запросу - спортлото:
2016-07-30 U Спортлото-82 (1982) WEBRip | Широкоформатная версия 1.37 GB ↑ 492 ↓ 8
2014-01-12 U Спортлото-82 (1982) SATRip-AVC от New-Team 1.46 GB ↑ 57 ↓ 20

Отзывы
Зарегистрируйтесь чтобы добавить комментарий.
Обратная связь
Copyleft ©