↑↓Torrent.by
Поиск
Логин: Регистрация
Пароль: Восстановить пароль
Загрузка...

Операция «С новым годом» (1996) DVDRip-AVC от KORSAR

Скачать operaciya-s-novym-godom-1996-dvdrip-avc-ot-korsar.torrent
U Магнитная ссылка Размер: 2.80 GB Раздают: 49 Качают: 11 Добавлен: 2018-05-27 16:12:51
Операция «С новым годом» (1996) DVDRip-AVC от KORSAR

Операция «С новым годом»

Страна: Россия
Жанр:  Комедия
Год выпуска: 1996
Продолжительность: 01:49:55
Перевод: Не требуется
Режиссер:  Александр Рогожкин
В ролях: Алексей Булдаков, Сергей Маковецкий, Леонид Ярмольник, Виктор Сухоруков, Семен Стругачев, Виктор Бычков, Андрей Краско, Александр Романцов, Зоя Буряк, Сергей Русскин, Кирилл Ульянов, Алексей Полуян, Александр Лыков

Описание: Под Новый Год в больницу с различными переломами попадают известный генерал, 'новый русский', повздорившие супруги, автор эротических романов и другие. Но жизнь продолжается, скоро Новый Год. Генерал берет на себя командование подготовкой праздника..

Кодек: х264
Качество: DVDRip-AVC
Видео: MPEG-4 AVC, 690х428@736x428, 25 fps, 3200 Кбит/с
Аудио: АС3, 2 сh, 448 Кбит/с
Субтитры: Нет
Главы: Есть


[+] Инфо файл

x264 [info]: frame I:816   Avg QP:18.06  size: 66567
x264 [info]: frame P:38541 Avg QP:20.40  size: 35296
x264 [info]: frame B:125520 Avg QP:22.31  size:  9746

Общее
Уникальный идентификатор                 : 179754373751140507939056867976647254474 (0x873B6EDFEA8A48CFA7F09B8A61D3A1CA)
Полное имя                               : I:Наше современное киноОперация с новым годом 1996_DVDRip-AVC_KORSAR.mkv
Формат                                   : Matroska
Версия формата                           : Version 2
Размер файла                             : 2,80 Гбайт
Продолжительность                        : 1 ч. 49 м.
Общий поток                              : 3650 Кбит/сек
Название фильма                          : mister.hats
Дата кодирования                         : UTC 2018-05-25 04:01:29
Программа кодирования                    : mkvmerge v5.8.0 ('No Sleep / Pillow') built on Sep  2 2012 15:37:04
Библиотека кодирования                   : libebml v1.2.3 + libmatroska v1.3.0

Видео
Идентификатор                            : 1
Формат                                   : AVC
Формат/Информация                        : Advanced Video Codec
Профиль формата                          : High@L4.1
Настройки формата                        : CABAC / 15 Ref Frames
Параметр CABAC формата                   : Да
Параметр RefFrames формата               : 15 кадров
Идентификатор кодека                     : V_MPEG4/ISO/AVC
Продолжительность                        : 1 ч. 49 м.
Битрейт                                  : 3200 Кбит/сек
Ширина                                   : 690 пикселей
Высота                                   : 428 пикселей
Соотношение сторон                       : 1,720
Режим частоты кадров                     : Постоянный
Частота кадров                           : 25,000 кадров/сек
Цветовое пространство                    : YUV
Субдискретизация насыщенности            : 4:2:0
Битовая глубина                          : 8 бит
Тип развёртки                            : Прогрессивная
Бит/(Пиксели*Кадры)                      : 0.433
Размер потока                            : 2,40 Гбайт (86%)
Библиотека кодирования                   : x264 core 152 r2851kMod ba24899
Настройки программы                      : cabac=1 / ref=15 / deblock=1:-2:-2 / analyse=0x3:0x133 / me=umh / subme=11 / psy=1 / fade_compensate=0.00 / psy_rd=1.05:0.10 / mixed_ref=1 / me_range=48 / chroma_me=1 / trellis=2 / 8x8dct=1 / cqm=0 / deadzone=21,11 / fast_pskip=0 / chroma_qp_offset=-3 / threads=12 / lookahead_threads=2 / sliced_threads=0 / nr=0 / decimate=0 / interlaced=0 / bluray_compat=0 / constrained_intra=0 / bframes=9 / b_pyramid=2 / b_adapt=2 / b_bias=0 / direct=3 / weightb=1 / open_gop=0 / weightp=2 / keyint=250 / keyint_min=25 / scenecut=40 / intra_refresh=0 / rc_lookahead=40 / rc=2pass / mbtree=0 / bitrate=3200 / ratetol=1.0 / qcomp=0.60 / qpmin=0 / qpmax=39 / qpstep=4 / cplxblur=20.0 / qblur=0.5 / vbv_maxrate=50000 / vbv_bufsize=62500 / nal_hrd=none / filler=0 / ip_ratio=1.25 / pb_ratio=1.30 / aq=1:1.00
Язык                                     : English
Default                                  : Да
Forced                                   : Нет
Цветовой диапазон                        : Limited
Основные цвета                           : BT.601 PAL
Характеристики трансфера                 : BT.470 System B, BT.470 System G
Коэффициенты матрицы                     : BT.470 System B, BT.470 System G

Аудио
Идентификатор                            : 2
Формат                                   : AC-3
Формат/Информация                        : Audio Coding 3
Параметр Endianness формата              : Big
Идентификатор кодека                     : A_AC3
Продолжительность                        : 1 ч. 49 м.
Вид битрейта                             : Постоянный
Битрейт                                  : 448 Кбит/сек
Каналы                                   : 2 канала
Расположение каналов                     : Front: L R
Частота                                  : 48,0 КГц
Частота кадров                           : 31,250 кадров/сек (1536 SPF)
Битовая глубина                          : 16 бит
Метод сжатия                             : С потерями
Размер потока                            : 352 Мбайт (12%)
Язык                                     : Russian
Default                                  : Да
Forced                                   : Нет

Меню
00:00:00.000                             : en:Chapter 1
00:05:33.000                             : en:Chapter 2
00:12:40.200                             : en:Chapter 3
00:18:54.600                             : en:Chapter 4
00:23:57.000                             : en:Chapter 5
00:29:11.400                             : en:Chapter 6
00:35:00.000                             : en:Chapter 7
00:39:59.400                             : en:Chapter 8
00:44:29.400                             : en:Chapter 9
00:49:18.600                             : en:Chapter 10
00:53:11.640                             : en:Chapter 11
00:57:46.440                             : en:Chapter 12
01:00:33.840                             : en:Chapter 13
01:05:33.240                             : en:Chapter 14
01:11:08.040                             : en:Chapter 15
01:15:27.840                             : en:Chapter 16
01:19:56.640                             : en:Chapter 17
01:23:52.440                             : en:Chapter 18
01:28:02.040                             : en:Chapter 19
01:35:14.640                             : en:Chapter 20
01:41:55.440                             : en:Chapter 21




Скриншоты:
[+] Всего файлов в раздаче - 1:
Операция с новым годом 1996_DVDRip-AVC_KORSAR.mkv2.80 GB

Текущая раздача:
ДатаКомментарии    РазмерПиры
2018-05-27 U Операция «С новым годом» (1996) DVDRip-AVC от KORSAR 2.80 GB ↑ 49 ↓ 11

Показать еще раздачи по запросу операция:
Вчера U Операция «Шаровая молния» / Entebbe / 7 Days in Entebbe (2018) WEB-DL 720p от ExKinoRay | HDRezka Studio 3.46 GB ↑ 32 ↓ 40
Вчера U Операция «Шаровая молния» / Entebbe / 7 Days in Entebbe (2018) WEB-DL 1080p от ExKinoRay | HDRezka Studio 3.84 GB ↑ 302 ↓ 133
Вчера U Операция «Шаровая молния» / Entebbe (2018) WEB-DLRip от MegaPeer | HDRezka Studio 1.46 GB ↑ 209 ↓ 202
Вчера U Операция «Шаровая молния» / Entebbe (2018) WEB-DLRip-AVC от OlLanDGroup | HDRezka Studio 1.46 GB ↑ 34 ↓ 86
2018-05-13 U Операция «Золотая ракушка» / Operación Concha (2017) HDRip | GreenРай Studio 1.37 GB ↑ 82 ↓ 31
2018-05-07 U Смерть шпионам: Операция «Лисья нора» (1-4 серия) (2012) торрент 2.90 GB ↑ 4 ↓ 4
2018-04-28 U Операция «Мухаббат» [01-09 из 09] (2018) WEB-DLRip от GeneralFilm 4.36 GB ↑ 288 ↓ 156

Отзывы
Зарегистрируйтесь чтобы добавить комментарий.
Обратная связь
Copyleft ©