↑↓Torrent.by
Поиск
Логин: Регистрация
Пароль: Восстановить пароль
Загрузка...

Закрой глаза (2015) WEB-DLRip от Portablius | iTunes

Скачать zakroy-glaza-2015-web-dlrip-ot-portablius-itunes.torrent
U Магнитная ссылка Размер: 1.37 GB Раздают: 32 Качают: 13 Добавлен: 2018-05-28 07:36:47
Закрой глаза (2015) WEB-DLRip от Portablius | iTunes

Название: Закрой глаза / Ночник
Год выхода: 2015
Жанр: Фэнтези, мистика, драма
Режиссер: Ольга Субботина
В ролях: Гоша Бондарев, Софья Хилькова, Светлана Иванова, Анатолий Белый, Юрки Линнанкиви, Анна Хилькевич, Валентина Талызина, Нина Корниенко, Мириам Сехон, Наталия Моргунова

О фильме: Загадочный ночной гость-призрак, рожденный фантазией маленького мальчика, умеет превратить каждую ночь в захватывающее приключение и стать мальчику другом, учителем и проводником в новые миры.

Страна: Россия
Студия: Proline Film
Продолжительность: 01:46:33
Перевод: Не требуется
Субтитры: Нет

Файл
Кодек: XviD
Качество: WEB-DLRip
Видео: 720x304 (2.37:1), 24.000 fps, XviD build 73 ~1446 kbps avg, 0.28 bit/pixel
Звук: 48 kHz, AC3 Dolby Digital, 3/2 (L,C,R,l,r) + LFE ch, ~384 kbps
[+] MediaInfo
General
Complete name               : Zakroi.glaza.2015.WEB-DLRip.ot.Portablius.avi
Format                      : AVI
Format/Info                 : Audio Video Interleave
File size                   : 1.37 GiB
Duration                    : 1 h 46 min
Overall bit rate            : 1 840 kb/s
Writing application         : VirtualDubMod 1.5.10.3 | www.virtualdub-fr.org || (build 2550/release)
Writing library             : VirtualDubMod build 2550/release

Video
ID                          : 0
Format                      : MPEG-4 Visual
Format profile              : Advanced Simple@L5
Format settings, BVOP       : 1
Format settings, QPel       : No
Format settings, GMC        : No warppoints
Format settings, Matrix     : Custom
Codec ID                    : XVID
Codec ID/Hint               : XviD
Duration                    : 1 h 46 min
Bit rate                    : 1 447 kb/s
Width                       : 720 pixels
Height                      : 304 pixels
Display aspect ratio        : 2.35:1
Frame rate                  : 24.000 FPS
Color space                 : YUV
Chroma subsampling          : 4:2:0
Bit depth                   : 8 bits
Scan type                   : Progressive
Compression mode            : Lossy
Bits/(Pixel*Frame)          : 0.275
Stream size                 : 1.08 GiB (79%)
Writing library             : XviD 73

Audio
ID                          : 1
Format                      : AC-3
Format/Info                 : Audio Coding 3
Format settings, Endianness : Big
Codec ID                    : 2000
Duration                    : 1 h 46 min
Bit rate mode               : Constant
Bit rate                    : 384 kb/s
Channel(s)                  : 6 channels
Channel positions           : Front: L C R, Side: L R, LFE
Sampling rate               : 48.0 kHz
Frame rate                  : 31.250 FPS (1536 spf)
Bit depth                   : 16 bits
Compression mode            : Lossy
Stream size                 : 293 MiB (21%)
Alignment                   : Split accross interleaves
Interleave, duration        : 42  ms (1.00 video frame)
Interleave, preload duratio : 500  ms
Service kind                : Complete Main




Скриншоты:
[+] Всего файлов в раздаче - 1:
Zakroi.glaza.2015.WEB-DLRip.ot.Portablius.avi1.37 GB

Текущая раздача:
ДатаКомментарии    РазмерПиры
2018-05-28 U Закрой глаза (2015) WEB-DLRip от Portablius | iTunes 1.37 GB ↑ 32 ↓ 13

Похожие раздачи по запросу - закрой:
2018-05-26 U Закрой глаза (2015) WEB-DL 1080р от KORSAR | iTunes 3.65 GB ↑ 68 ↓ 9
2013-11-24 U Закрой мои глаза / Close My Eyes (1991) DVDRip 1.61 GB ↑ 656 ↓ 76

Отзывы
Зарегистрируйтесь чтобы добавить комментарий.
Обратная связь
Copyleft ©