↑↓Torrent.by
Поиск
Логин: Регистрация
Пароль: Восстановить пароль
Загрузка...

Привал странников (1990) SATRip-AVC от KORSAR | Полная версия

Скачать prival-strannikov-1990-satrip-avc-ot-korsar-polnaya-versiya.torrent
U Магнитная ссылка Размер: 3.29 GB Раздают: 48 Качают: 16 Добавлен: 2018-05-28 15:25:02
Привал странников (1990) SATRip-AVC от KORSAR | Полная версия

Название: Привал странников
Год выхода: 1990
Жанр:  Криминал
Режиссер: Александр Бланк
В ролях: Юрий Стосков, Игорь Богодух, Георгий Кавтарадзе, Алексей Симановский, Юрий Соломин, Михаил Волков, Сергей Проханов, Анатолий Равикович, Сергей Яковлев, Александр Бордуков, Владимир Борисов, Павел Белозеров, Валерия Устинова, Сергей Балабанов

О фильме: Кафе, в котором отставной полковник милиции Смирнов был накануне, исчезло. После того, как он успевает поговорить с участковым, тот погибает. И тогда Смирнов самостоятельно берется за расследование загадочного происшествия.

Выпущено: СССР
Продолжительность: 03:25:18
Перевод: Не требуется

Файл
Кодек: х264
Качество: SATRip-AVC
Видео: MPEG-4 AVC, 718x574@765x574, 25.000 fps, 2100 Кбит/с
Аудио: AC3, 2 ch, 192 Кбит/с
Субтитры: Нет

Релиз:
[+] MediaInfo

x264 [info]: frame I:1562  Avg QP:16.90  size: 55438
x264 [info]: frame P:66841 Avg QP:19.53  size: 22731
x264 [info]: frame B:239563 Avg QP:21.33  size:  6795

============================================

Общее
Уникальный идентификатор                 : 184386630919241330379329911046966353273 (0x8AB792C93DDF13759F0EEECA1E341D79)
Полное имя                               : Привал странников_1990-SATRip-AVC.KORSAR.mkv
Формат                                   : Matroska
Версия формата                           : Version 2
Размер файла                             : 3,29 Гбайт
Продолжительность                        : 3 ч. 25 м.
Общий поток                              : 2294 Кбит/сек
Дата кодирования                         : UTC 2017-04-09 01:30:22
Программа кодирования                    : mkvmerge v5.8.0 ('No Sleep / Pillow') built on Sep  2 2012 15:37:04
Библиотека кодирования                   : libebml v1.2.3 + libmatroska v1.3.0

Видео
Идентификатор                            : 1
Формат                                   : AVC
Формат/Информация                        : Advanced Video Codec
Профиль формата                          : High@L4.1
Параметр CABAC формата                   : Да
Параметр ReFrames формата                : 15 кадров
Идентификатор кодека                     : V_MPEG4/ISO/AVC
Продолжительность                        : 3 ч. 25 м.
Битрейт                                  : 2100 Кбит/сек
Ширина                                   : 718 пикселей
Высота                                   : 574 пикселя
Соотношение сторон                       : 4:3
Соотношение сторон в оригинале           : 4:3
Режим частоты кадров                     : Постоянный
Частота кадров                           : 25,000 кадров/сек
Цветовое пространство                    : YUV
Субдискретизация насыщенности            : 4:2:0
Битовая глубина                          : 8 бит
Тип развёртки                            : Прогрессивная
Бит/(Пиксели*Кадры)                      : 0.204
Размер потока                            : 2,95 Гбайт (90%)
Заголовок                                : Привал странников_1990-SATRip-AVC.KORSAR
Библиотека кодирования                   : x264 core 148 r2744kMod b97ae06
Настройки программы                      : cabac=1 / ref=15 / deblock=1:-2:-2 / analyse=0x3:0x133 / me=umh / subme=10 / psy=1 / fade_compensate=0.00 / psy_rd=1.05:0.10 / mixed_ref=1 / me_range=32 / chroma_me=1 / trellis=2 / 8x8dct=1 / cqm=0 / deadzone=21,11 / fast_pskip=0 / chroma_qp_offset=-3 / threads=12 / lookahead_threads=2 / sliced_threads=0 / nr=0 / decimate=0 / interlaced=0 / bluray_compat=0 / constrained_intra=0 / bframes=9 / b_pyramid=2 / b_adapt=2 / b_bias=0 / direct=3 / weightb=1 / open_gop=0 / weightp=2 / keyint=250 / keyint_min=25 / scenecut=40 / intra_refresh=0 / rc=2pass / mbtree=0 / bitrate=2100 / ratetol=1.0 / qcomp=0.63 / qpmin=0 / qpmax=39 / qpstep=4 / cplxblur=20.0 / qblur=0.5 / ip_ratio=1.25 / pb_ratio=1.20 / aq=1:1.00
Язык                                     : English
Default                                  : Да
Forced                                   : Нет
Цветовой диапазон                        : Limited
Основные цвета                           : BT.601 PAL
Характеристики трансфера                 : BT.470 System B, BT.470 System G
Коэффициенты матрицы                     : BT.601

Аудио
Идентификатор                            : 2
Формат                                   : AC-3
Формат/Информация                        : Audio Coding 3
Расширение режима                        : CM (complete main)
Параметр Endianness формата              : Big
Идентификатор кодека                     : A_AC3
Продолжительность                        : 3 ч. 25 м.
Вид битрейта                             : Постоянный
Битрейт                                  : 192 Кбит/сек
Каналы                                   : 2 канала
Расположение каналов                     : Front: L R
Частота                                  : 48,0 КГц
Частота кадров                           : 31,250 кадров/сек (1536 spf)
Битовая глубина                          : 16 бит
Метод сжатия                             : С потерями
Размер потока                            : 282 Мбайт (8%)
Язык                                     : Russian
Default                                  : Да
Forced                                   : Нет



Скриншоты:
[+] Всего файлов в раздаче - 1:
Привал странников_1990-SATRip-AVC.mkv3.29 GB

Отзывы
Зарегистрируйтесь чтобы добавить комментарий.
Обратная связь
Copyleft ©