↑↓Torrent.by
Поиск
Логин: Регистрация
Пароль: Восстановить пароль
Загрузка...

Аннигиляция / Annihilation (2018) BDRip-HEVC 1080p от ХиМиК | P, A

Скачать annigilyaciya-annihilation-2018-bdrip-hevc-1080p-ot-himik-p-a.torrent
U Магнитная ссылка Размер: 4.29 GB Раздают: 51 Качают: 30 Добавлен: 2018-05-29 12:42:13
Аннигиляция / Annihilation (2018) BDRip-HEVC 1080p от ХиМиК | P, A

Название: Аннигиляция
Оригинальное название: Annihilation
Год выхода: 2018
Жанр: фантастика, фэнтези, ужасы, триллер, драма, детектив, приключения
Режиссер: Алекс Гарленд
В ролях: Натали Портман, Дженнифер Джейсон Ли, Оскар Айзек, Тесса Томпсон, Джина Родригез, Тува Новотны, Бенедикт Вонг, Дэвид Гяси, Соноя Мидзуно, Джон Шваб

О фильме:
Профессор биологии Лина уже год страдает от потери мужа-военного. Кейн отправился на очередное секретное задание, но так и не вернулся — жив ли, погиб — женщина не знает, пока однажды дезориентированный и слегка бледный супруг внезапно не появляется на пороге их спальни. Радость длится недолго — у мужчины начинаются судороги и множественные кровотечения, а по дороге в больницу машину скорой помощи тормозят военные. Лина приходит в себя на секретной базе рядом с той самой загадочной зоной, куда уже отправлялись многочисленные экспедиции, но вернулся, оказывается, только один человек — её Кейн.

Страна: Великобритания, США
Студия: Sepia Films
Продолжительность: 01:55:26
Перевод: Многоголосый закадровый, Авторский одноголосый

Файл
Кодек: HEVC x265 10 bit
Качество: BDRip-HEVC 1080p
Видео: 1920x802 (2.40:1), 3284 Кбит/сек, 0.089 бит/(Пиксели*Кадры), 23,976 кадр/сек (24000/1001), HEVC (Main10@L.4.1@High) 10 бит
Звук:
Русская, AC3, 384 Кбит/сек, Front: L C R, Side: L R, LFE, 48,0 КГц (MVO Jaskier)
Русская, AC3, 384 Кбит/сек, Front: L C R, Side: L R, LFE, 48,0 КГц (MVO NewStudio)
Русская, AC3, 192 Кбит/сек, Front: L R, 48,0 КГц (MVO HDRezka Studio)
Русская, AC3, 448 Кбит/сек, Front: L C R, Side: L R, LFE, 48,0 КГц (AVO Яроцкий)
Английская, AC3, 640 Кбит/сек, Front: L C R, Side: L R, LFE, 48,0 КГц (Оригинал)
Субтитры: русские, английские
Разделение по главам: есть

Семпл

Релиз от: от XuMuK


[+] MediaInfo

Общее
Уникальный идентификатор                 : 49350683966281261796977684240110654729 (0x25209893A1736A5E81753059475B1509)
Полное имя                               : H:HEVC 210 BITAnnihilation_2018_BDRip_1080p_[HEVC]_10bit_by XuMuK.mkv
Формат                                   : Matroska
Версия формата                           : Version 4 / Version 2
Размер файла                             : 4,29 Гбайт
Продолжительность                        : 1 ч. 55 м.
Общий поток                              : 5320 Кбит/сек
Название фильма                          : HEVC by XuMuK
Дата кодирования                         : UTC 2018-05-28 16:15:37
Программа кодирования                    : mkvmerge v23.0.0 ('The Bride Said No') 64-bit
Библиотека кодирования                   : libebml v1.3.6 + libmatroska v1.4.9
Обложка                                  : Yes
Attachments                              : cover.jpg

Видео
Идентификатор                            : 1
Формат                                   : HEVC
Формат/Информация                        : High Efficiency Video Coding
Профиль формата                          : Main 10@L4.1@High
Идентификатор кодека                     : V_MPEGH/ISO/HEVC
Продолжительность                        : 1 ч. 55 м.
Битрейт                                  : 3284 Кбит/сек
Ширина                                   : 1920 пикселей
Высота                                   : 802 пикселя
Соотношение сторон                       : 2,40:1
Режим частоты кадров                     : Постоянный
Частота кадров                           : 23,976 (24000/1001) кадра/сек
Цветовое пространство                    : YUV
Субдискретизация насыщенности            : 4:2:0
Битовая глубина                          : 10 бит
Бит/(Пиксели*Кадры)                      : 0.089
Размер потока                            : 2,64 Гбайт (61%)
Библиотека кодирования                   : x265 2.7+351-d3b714bd5471:[Windows][GCC 8.1.0][64 bit] 10bit
Настройки программы                      : cpuid=1111039 / frame-threads=4 / numa-pools=16 / wpp / no-pmode / no-pme / no-psnr / no-ssim / log-level=2 / input-csp=1 / input-res=1920x802 / interlace=0 / total-frames=165445 / level-idc=41 / high-tier=1 / uhd-bd=0 / ref=5 / no-allow-non-conformance / no-repeat-headers / annexb / no-aud / no-hrd / info / hash=0 / no-temporal-layers / open-gop / min-keyint=23 / keyint=240 / gop-lookahead=0 / bframes=8 / b-adapt=2 / b-pyramid / bframe-bias=0 / rc-lookahead=60 / lookahead-slices=4 / scenecut=40 / radl=0 / no-intra-refresh / ctu=64 / min-cu-size=8 / rect / amp / max-tu-size=32 / tu-inter-depth=4 / tu-intra-depth=4 / limit-tu=1 / rdoq-level=2 / dynamic-rd=0.00 / no-ssim-rd / signhide / no-tskip / nr-intra=0 / nr-inter=0 / no-constrained-intra / no-strong-intra-smoothing / max-merge=3 / limit-refs=2 / limit-modes / me=3 / subme=7 / merange=57 / temporal-mvp / weightp / weightb / no-analyze-src-pics / deblock=-3:-3 / no-sao / no-sao-non-deblock / rd=6 / no-early-skip / rskip / no-fast-intra / no-tskip-fast / no-cu-lossless / b-intra / no-splitrd-skip / rdpenalty=0 / psy-rd=2.00 / psy-rdoq=1.00 / no-rd-refine / no-lossless / cbqpoffs=-2 / crqpoffs=-2 / rc=crf / crf=18.0 / qcomp=0.60 / qpstep=4 / stats-write=0 / stats-read=0 / vbv-maxrate=50000 / vbv-bufsize=50000 / vbv-init=0.9 / crf-max=0.0 / crf-min=0.0 / ipratio=1.40 / pbratio=1.30 / aq-mode=1 / aq-strength=1.00 / cutree / zone-count=1 / zones: / start-frame=155707 / end-frame=165445 / qp=35 / no-strict-cbr / qg-size=32 / no-rc-grain / qpmax=69 / qpmin=0 / no-const-vbv / sar=1 / overscan=0 / videoformat=5 / range=0 / colorprim=1 / transfer=1 / colormatrix=1 / chromaloc=0 / display-window=0 / max-cll=0,0 / min-luma=0 / max-luma=1023 / log2-max-poc-lsb=8 / vui-timing-info / vui-hrd-info / slices=1 / no-opt-qp-pps / no-opt-ref-list-length-pps / no-multi-pass-opt-rps / scenecut-bias=0.05 / no-opt-cu-delta-qp / no-aq-motion / no-hdr / no-hdr-opt / no-dhdr10-opt / no-idr-recovery-sei / analysis-reuse-level=5 / scale-factor=0 / refine-intra=0 / refine-inter=0 / refine-mv=0 / no-limit-sao / ctu-info=0 / no-lowpass-dct / refine-mv-type=0 / copy-pic=1 / max-ausize-factor=1.0 / no-dynamic-refine / no-single-sei
Default                                  : Да
Forced                                   : Нет
Цветовой диапазон                        : Limited
Основные цвета                           : BT.709
Характеристики трансфера                 : BT.709
Коэффициенты матрицы                     : BT.709

Аудио #1
Идентификатор                            : 2
Формат                                   : AC-3
Формат/Информация                        : Audio Coding 3
Идентификатор кодека                     : A_AC3
Продолжительность                        : 1 ч. 55 м.
Вид битрейта                             : Постоянный
Битрейт                                  : 384 Кбит/сек
Каналы                                   : 6 каналов
Расположение каналов                     : Front: L C R, Side: L R, LFE
Частота                                  : 48,0 КГц
Частота кадров                           : 31,250 кадров/сек (1536 SPF)
Битовая глубина                          : 16 бит
Метод сжатия                             : С потерями
Размер потока                            : 317 Мбайт (7%)
Заголовок                                : MVO Jaskier
Язык                                     : Russian
ServiceKind                              : Complete Main
Default                                  : Да
Forced                                   : Да

Аудио #2
Идентификатор                            : 3
Формат                                   : AC-3
Формат/Информация                        : Audio Coding 3
Идентификатор кодека                     : A_AC3
Продолжительность                        : 1 ч. 55 м.
Вид битрейта                             : Постоянный
Битрейт                                  : 384 Кбит/сек
Каналы                                   : 6 каналов
Расположение каналов                     : Front: L C R, Side: L R, LFE
Частота                                  : 48,0 КГц
Частота кадров                           : 31,250 кадров/сек (1536 SPF)
Битовая глубина                          : 16 бит
Метод сжатия                             : С потерями
Размер потока                            : 317 Мбайт (7%)
Заголовок                                : MVO NewStudio
Язык                                     : Russian
ServiceKind                              : Complete Main
Default                                  : Нет
Forced                                   : Нет

Аудио #3
Идентификатор                            : 4
Формат                                   : AC-3
Формат/Информация                        : Audio Coding 3
Идентификатор кодека                     : A_AC3
Продолжительность                        : 1 ч. 55 м.
Вид битрейта                             : Постоянный
Битрейт                                  : 192 Кбит/сек
Каналы                                   : 2 канала
Расположение каналов                     : Front: L R
Частота                                  : 48,0 КГц
Частота кадров                           : 31,250 кадров/сек (1536 SPF)
Битовая глубина                          : 16 бит
Метод сжатия                             : С потерями
Размер потока                            : 159 Мбайт (4%)
Заголовок                                : MVO HDRezka Studio
Язык                                     : Russian
ServiceKind                              : Complete Main
Default                                  : Нет
Forced                                   : Нет

Аудио #4
Идентификатор                            : 5
Формат                                   : AC-3
Формат/Информация                        : Audio Coding 3
Идентификатор кодека                     : A_AC3
Продолжительность                        : 1 ч. 55 м.
Вид битрейта                             : Постоянный
Битрейт                                  : 448 Кбит/сек
Каналы                                   : 6 каналов
Расположение каналов                     : Front: L C R, Side: L R, LFE
Частота                                  : 48,0 КГц
Частота кадров                           : 31,250 кадров/сек (1536 SPF)
Битовая глубина                          : 16 бит
Метод сжатия                             : С потерями
Размер потока                            : 370 Мбайт (8%)
Заголовок                                : AVO Яроцкий
Язык                                     : Russian
ServiceKind                              : Complete Main
Default                                  : Нет
Forced                                   : Нет

Аудио #5
Идентификатор                            : 6
Формат                                   : AC-3
Формат/Информация                        : Audio Coding 3
Идентификатор кодека                     : A_AC3
Продолжительность                        : 1 ч. 55 м.
Вид битрейта                             : Постоянный
Битрейт                                  : 640 Кбит/сек
Каналы                                   : 6 каналов
Расположение каналов                     : Front: L C R, Side: L R, LFE
Частота                                  : 48,0 КГц
Частота кадров                           : 31,250 кадров/сек (1536 SPF)
Битовая глубина                          : 16 бит
Метод сжатия                             : С потерями
Размер потока                            : 526 Мбайт (12%)
Заголовок                                : Оригинал
Язык                                     : English
ServiceKind                              : Complete Main
Default                                  : Нет
Forced                                   : Нет

Текст #1
Идентификатор                            : 7
Формат                                   : UTF-8
Идентификатор кодека                     : S_TEXT/UTF8
Идентификатор кодека/Информация          : UTF-8 Plain Text
Продолжительность                        : 1 ч. 46 м.
Битрейт                                  : 59 бит/сек
ElementCount                             : 915
Размер потока                            : 46,7 Кбайт (0%)
Заголовок                                : RUS
Язык                                     : Russian
Default                                  : Нет
Forced                                   : Нет

Текст #2
Идентификатор                            : 8
Формат                                   : UTF-8
Идентификатор кодека                     : S_TEXT/UTF8
Идентификатор кодека/Информация          : UTF-8 Plain Text
Продолжительность                        : 1 ч. 46 м.
Битрейт                                  : 34 бит/сек
ElementCount                             : 940
Размер потока                            : 27,1 Кбайт (0%)
Заголовок                                : ENG
Язык                                     : English
Default                                  : Нет
Forced                                   : Нет

Меню
00:00:00.000                             : en:00:00:00.000
00:05:09.309                             : en:00:05:09.309
00:11:39.157                             : en:00:11:39.157
00:17:06.692                             : en:00:17:06.692
00:24:08.656                             : en:00:24:08.656
00:28:59.446                             : en:00:28:59.446
00:37:24.242                             : en:00:37:24.242
00:41:59.517                             : en:00:41:59.517
00:49:11.448                             : en:00:49:11.448
00:56:06.405                             : en:00:56:06.405
01:03:22.298                             : en:01:03:22.298
01:10:25.012                             : en:01:10:25.012
01:17:21.929                             : en:01:17:21.929
01:22:20.477                             : en:01:22:20.477
01:30:26.296                             : en:01:30:26.296
01:38:48.589                             : en:01:38:48.589
01:43:58.357                             : en:01:43:58.357
01:48:14.279                             : en:01:48:14.279



Скриншоты:
[+] Всего файлов в раздаче - 1:
Annihilation_2018_BDRip_1080p_[HEVC]_10bit_by XuMuK.mkv4.29 GB

Показать еще раздачи по запросу аннигиляция:
2019-04-13 U Аннигиляция / Annihilation (2018) BDRip-AVC от HELLYWOOD | iTunes 2.13 GB ↑ 118 ↓ 32
2019-04-13 U Аннигиляция / Annihilation (2018) BDRip 1080p от HELLYWOOD | D, P, A 9.16 GB ↑ 95 ↓ 44
2019-04-13 U Аннигиляция / Annihilation (2018) BDRip 1080р | D, P, A | iTunes 10.55 GB ↑ 208 ↓ 63
2019-04-12 U Аннигиляция / Annihilation (2018) BDRip от MegaPeer | iTunes 1.46 GB ↑ 195 ↓ 66
2018-06-25 U Аннигиляция / Annihilation (2018) BDRip 1080p от HELLYWOOD | P, A 7.93 GB ↑ 58 ↓ 47
2018-06-25 U Аннигиляция / Annihilation (2018) BDRip от MegaPeer | A 1.46 GB ↑ 65 ↓ 19
2018-06-24 U Аннигиляция / Annihilation (2018) BDRip 1080p | P, A 12.44 GB ↑ 231 ↓ 73

Отзывы
Зарегистрируйтесь чтобы добавить комментарий.
Обратная связь
Copyleft ©