↑↓Torrent.by
Поиск
Логин: Регистрация
Пароль: Восстановить пароль
Загрузка...

Воры в законе (1988) DVDRip-AVC от KORSAR

Скачать vory-v-zakone-1988-dvdrip-avc-ot-korsar.torrent
U Магнитная ссылка Размер: 1.53 GB Раздают: 74 Качают: 26 Добавлен: 2018-05-29 19:07:04
Воры в законе (1988) DVDRip-AVC от KORSAR

Название: Воры в законе
Год выхода: 1988
Жанр:  Боевик, драма
Режиссер: Юрий Кара
В ролях: Анна Самохина, Валентин Гафт, Владимир Стеклов, Борис Щербаков, Арнис Лицитис, Нурбей Камкиа, Зиновий Гердт, Гиви Лежава, Амаяк Акопян, Станислав Коренев, Константин Кищук, Серкей Максачев

О фильме: Практически первый отечественный фильм о нашей мафии, где положительным героем выступает не милиционер. Актуальный для конца восьмидесятых остросоциальный боевик о советской коррупции, расцветшей в благоприятных условиях черноморского побережья и паралича власти. Гангстерская история «из жизни кавказской мафии», где двое главарей враждующих группировок из южного приморского городка борются за сферы влияния. В эту борьбу оказывается, втянута роковая красавица Рита, повторившая на свой лад судьбу Кармен.

Страна: СССР
Студия: Киностудия им. М. Горького
Продолжительность: 01:29:21

Файл
Кодек: х264
Качество: DVDRip-AVC
Видео: MPEG-4 AVC, 710x406@710x456, 25.000 fps, 2002 Кбит/с
Аудио: AC3, 6 ch, 448 Кбит/с
Субтитры: Нет
Навигация по главам: Есть

Релиз:
[+] MediaInfo
Общее
Уникальный идентификатор                 : 183968759278068660302328887267990194515 (0x8A67181F9FAD53EAA9D200522C2C4953)
Полное имя                               : Воры в законе_1988-DVDRip-AVC_KORSAR.mkv
Формат                                   : Matroska
Версия формата                           : Version 2
Размер файла                             : 1,53 Гбайт
Продолжительность                        : 1 ч. 29 м.
Общий поток                              : 2453 Кбит/сек
Дата кодирования                         : UTC 2016-08-16 15:22:42
Программа кодирования                    : mkvmerge v5.8.0 ('No Sleep / Pillow') built on Sep  2 2012 15:37:04
Библиотека кодирования                   : libebml v1.2.3 + libmatroska v1.3.0

Видео
Идентификатор                            : 1
Формат                                   : AVC
Формат/Информация                        : Advanced Video Codec
Профиль формата                          : High@L4.1
Параметр CABAC формата                   : Да
Параметр RefFrames формата               : 14 кадров
Идентификатор кодека                     : V_MPEG4/ISO/AVC
Продолжительность                        : 1 ч. 29 м.
Битрейт                                  : 2002 Кбит/сек
Ширина                                   : 710 пикселей
Высота                                   : 406 пикселей
Соотношение сторон                       : 16:10
Соотношение сторон в оригинале           : 16:10
Режим частоты кадров                     : Постоянный
Частота кадров                           : 25,000 кадров/сек
Цветовое пространство                    : YUV
Субдискретизация насыщенности            : 4:2:0
Битовая глубина                          : 8 бит
Тип развёртки                            : Прогрессивная
Бит/(Пиксели*Кадры)                      : 0.278
Размер потока                            : 1,22 Гбайт (80%)
Заголовок                                : Воры в законе_1988-DVDRip-AVC_KORSAR
Библиотека кодирования                   : x264 core 148 r2638 7599210
Настройки программы                      : cabac=1 / ref=14 / deblock=1:-2:-2 / analyse=0x3:0x133 / me=umh / subme=10 / psy=1 / psy_rd=1.05:0.10 / mixed_ref=1 / me_range=32 / chroma_me=1 / trellis=2 / 8x8dct=1 / cqm=0 / deadzone=21,11 / fast_pskip=0 / chroma_qp_offset=-3 / threads=12 / lookahead_threads=3 / sliced_threads=0 / nr=0 / decimate=0 / interlaced=0 / bluray_compat=0 / constrained_intra=0 / bframes=10 / b_pyramid=2 / b_adapt=2 / b_bias=0 / direct=3 / weightb=1 / open_gop=0 / weightp=2 / keyint=250 / keyint_min=25 / scenecut=40 / intra_refresh=0 / rc_lookahead=40 / rc=2pass / mbtree=0 / bitrate=2002 / ratetol=1.0 / qcomp=0.63 / qpmin=0 / qpmax=39 / qpstep=4 / cplxblur=20.0 / qblur=0.5 / vbv_maxrate=50000 / vbv_bufsize=62500 / nal_hrd=none / filler=0 / ip_ratio=1.40 / pb_ratio=1.30 / aq=2:1.00
Язык                                     : English
Default                                  : Да
Forced                                   : Нет
Цветовой диапазон                        : Limited
Основные цвета                           : BT.601 NTSC
Характеристики трансфера                 : BT.601
Коэффициенты матрицы                     : BT.601

Аудио
Идентификатор                            : 2
Формат                                   : AC-3
Формат/Информация                        : Audio Coding 3
Параметр Endianness формата              : Big
Идентификатор кодека                     : A_AC3
Продолжительность                        : 1 ч. 29 м.
Вид битрейта                             : Постоянный
Битрейт                                  : 448 Кбит/сек
Каналы                                   : 6 каналов
Расположение каналов                     : Front: L C R, Side: L R, LFE
Частота                                  : 48,0 КГц
Частота кадров                           : 31,250 кадров/сек (1536 SPF)
Битовая глубина                          : 16 бит
Метод сжатия                             : С потерями
Задержка видео                           : 280 мс.
Размер потока                            : 286 Мбайт (18%)
Язык                                     : Russian
Default                                  : Да
Forced                                   : Нет

Меню
00:00:00.000                             : en:Chapter 1
00:10:55.200                             : en:Chapter 2
00:20:15.400                             : en:Chapter 3
00:29:55.301                             : en:Chapter 4
00:40:50.202                             : en:Chapter 5
00:54:09.903                             : en:Chapter 6
01:10:00.303                             : en:Chapter 7
01:27:10.703                             : en:Chapter 8



Скриншоты:
[+] Всего файлов в раздаче - 1:
Воры в законе_1988-DVDRip-AVC.mkv1.53 GB

Текущая раздача:
ДатаКомментарии    РазмерПиры
2018-05-29 U Воры в законе (1988) DVDRip-AVC от KORSAR 1.53 GB ↑ 74 ↓ 26

Похожие раздачи по запросу - воры:
2018-06-04 U Старые Воры VIII: Партизанская Дочка / Star Wars: Episode VIII - The Last Jedi (2018) HDRip | Смешной перевод 2.10 GB ↑ 104 ↓ 16
2013-11-06 U Воры / The Thieves (2012) HDRip 13К1.49 GB ↑ 131 ↓ 10

Отзывы
Зарегистрируйтесь чтобы добавить комментарий.
Обратная связь
Copyleft ©