↑↓Torrent.by
Поиск
Логин: Регистрация
Пароль: Восстановить пароль
Загрузка...

Ташкент - город хлебный (1967) VHSRip | Полная версия

Скачать tashkent-gorod-hlebnyy-1967-vhsrip-polnaya-versiya.torrent
U Магнитная ссылка Размер: 1.46 GB Раздают: 62 Качают: 27 Добавлен: 2018-05-30 08:46:18
Ташкент - город хлебный (1967) VHSRip | Полная версия

Название: Ташкент - город хлебный
Год выхода: 1967
Жанр:  Драма
Режиссёр: Шухрат Аббасов
В ролях: Володя Воробей, Володя Куденков, Валентина Талызина, Бахтияр Набиев, Наталья Аринбасарова, Николай Тимофеев, Александр Суснин, Раиса Куркина, Виктор Колпаков, Евгений Гуров, Александра Денисова, Станислав Чекан, Виктор Косых

О фильме: Советская Россия, Поволжье, 1921 год. Не успели отгреметь битвы гражданской войны, как новая беда настигла молодую Советскую республику. Засуха иссушила землю Поволжья. Неурожай привёл к массовому голоду. Советская власть была не в состоянии помочь бедствующим крестьянам. Чтобы спасти мать и младших братьев от голода, крестьянский мальчик Миша Додонов вместе с другом Серёжей отправляется в Ташкент на заработки...

Доп. информация: Полная версия длиннее обычной на 56 минут

Страна: СССР
Студия: Узбекфильм
Продолжительность: 02:33:22
Перевод: Не требуется (оригинальный)

Файл
Формат: avi
Качество: VHSRip
Видео: XviD, 640х280, 25fps, 1165kbps
Аудио: MPEG Layer 3, 2ch, 48000Hz, 192kbps


[+] MediaInfo

Общее
Полное имя                               : Tashkent.Gorod.Hlebnyi.1967.O.VHSRip.1400.PV.avi
Формат                                   : AVI
Формат/Информация                        : Audio Video Interleave
Размер файла                             : 1,46 Гбайт
Продолжительность                        : 2 ч. 33 м.
Общий поток                              : 1367 Кбит/сек
Программа кодирования                    : VirtualDubMod 1.5.10.3 | www.virtualdub-fr.org || (build 2550/release)
Библиотека кодирования                   : VirtualDub build 35491/release

Видео
Идентификатор                            : 0
Формат                                   : MPEG-4 Visual
Профиль формата                          : Advanced Simple@L5
Параметр BVOP формата                    : 1
Параметр QPel формата                    : Нет
Параметр GMC формата                     : Без точки перехода
Параметр матрицы формата                 : Выборочная
Идентификатор кодека                     : XVID
Идентификатор кодека/Подсказка           : XviD
Продолжительность                        : 2 ч. 33 м.
Битрейт                                  : 1165 Кбит/сек
Ширина                                   : 640 пикселей
Высота                                   : 280 пикселей
Соотношение сторон                       : 2,25:1
Частота кадров                           : 25,000 кадров/сек
Цветовое пространство                    : YUV
Субдискретизация насыщенности            : 4:2:0
Битовая глубина                          : 8 бит
Тип развёртки                            : Прогрессивная
Метод сжатия                             : С потерями
Бит/(Пиксели*Кадры)                      : 0.260
Размер потока                            : 1,25 Гбайт (85%)
Библиотека кодирования                   : XviD 73

Аудио
Идентификатор                            : 1
Формат                                   : MPEG Audio
Версия формата                           : Version 1
Профиль формата                          : Layer 3
Идентификатор кодека                     : 55
Идентификатор кодека/Подсказка           : MP3
Продолжительность                        : 2 ч. 33 м.
Вид битрейта                             : Постоянный
Битрейт                                  : 192 Кбит/сек
Каналы                                   : 2 канала
Частота                                  : 48,0 КГц
Метод сжатия                             : С потерями
Размер потока                            : 211 Мбайт (14%)
Выравнивание                             : Разделение по промежуткам
Продолжительность промежутка             : 40  мс. (1,00 видеокадр)
Время предзагрузки промежутка            : 500  мс.
Библиотека кодирования                   : LAME3.99r
Настройки программы                      : -m s -V 4 -q 2 -lowpass 18.6 -b 192



Скриншоты:
[+] Всего файлов в раздаче - 1:
Tashkent.Gorod.Hlebnyi.1967.O.VHSRip.1400.PV.avi1.46 GB

Отзывы
Зарегистрируйтесь чтобы добавить комментарий.
Обратная связь
Copyleft ©