↑↓Torrent.by
Поиск
Логин: Регистрация
Пароль: Восстановить пароль
Загрузка...

Танки (2018) WEB-DLRip-AVC от Generalfilm | iTunes

Скачать tanki-2018-web-dlrip-avc-ot-generalfilm-itunes.torrent
U Магнитная ссылка Размер: 1.53 GB Раздают: 192 Качают: 70 Добавлен: 2018-05-31 17:10:27
Танки (2018) WEB-DLRip-AVC от Generalfilm | iTunes

Название: Танки
Год выпуска: 2018
Страна: Россия
Жанр: приключения, история, военный
Перевод: оригинал [iTunes]
Продолжительность: 01:33:13
Режиссер: Ким Дружинин
В ролях: Андрей Мерзликин (Михаил Кошкин), Аглая Тарасова, Александр Тютин, Сергей Стукалов, Антон Филипенко, Алексей Овсянников (Гоззо), Сергей Четвертков (инженер), Николай Горшков, Дмитрий Поднозов, Юрий Ицков, Мераб Майсурадзе, Владимир Верёвочкин (разведчик)

Описание:
На пороге войны с фашистской Германией инженер Михаил Кошкин разрабатывает прототип нового инновационного танка Т-34. Чтобы доказать уникальность боевой машины, Кошкин и его команда отправляются в Москву на танках своим ходом. Но вскоре пробег превращается в непредсказуемую гонку, где бездорожье лишь меньшее из зол... Пройдя череду опасных приключений и благодаря безупречным техническим и боевым качествам новых танков, героям удается одержать верх над преследователями и доказать превосходство Т-34.

Качество: WEB-DLRip-AVC
Формат: MKV
Видео: AVC, 1024x454 (2.25:1), 1961 kbps, 23,976 fps, 0,176 bpp
Аудио: русский / AC3 / 5.1 / 48 kHz / 384 kbps / ||
[+] ОтчетМедиаИнфо

General
Unique ID                                : 173853078343672540985380117754898229840 (0x82CAE28C1F548FFDBD850E992ACB2A50)
Complete name                            : E:TankI.2O18.WEB-DLRip-AVC.by.White Smoke.R.G.Generalfilm.mkv
Format                                   : Matroska
Format version                           : Version 2
File size                                : 1.53 GiB
Duration                                 : 1 h 33 min
Overall bit rate                         : 2 347 kb/s
Movie name                               : TankI.2O18.WEB-DLRip-AVC.by.White Smoke.R.G.Generalfilm.mkv
Encoded date                             : UTC 2018-05-31 06:39:06
Writing application                      : mkvmerge v7.6.0 ('Garden of Dreams') 32bit built on Feb 11 2015 00:18:47
Writing library                          : libebml v1.3.1 + libmatroska v1.4.2

Video
ID                                       : 1
Format                                   : AVC
Format/Info                              : Advanced Video Codec
Format profile                           : High@L4.1
Format settings, CABAC                   : Yes
Format settings, ReFrames                : 10 frames
Codec ID                                 : V_MPEG4/ISO/AVC
Duration                                 : 1 h 33 min
Bit rate                                 : 1 961 kb/s
Width                                    : 1 024 pixels
Height                                   : 454 pixels
Display aspect ratio                     : 2.25:1
Frame rate mode                          : Constant
Frame rate                               : 23.976 (24000/1001) FPS
Color space                              : YUV
Chroma subsampling                       : 4:2:0
Bit depth                                : 8 bits
Scan type                                : Progressive
Bits/(Pixel*Frame)                       : 0.176
Stream size                              : 1.25 GiB (82%)
Writing library                          : x264 core 148 r2638 7599210
Encoding settings                        : cabac=1 / ref=10 / deblock=1:-2:-1 / analyse=0x3:0x113 / me=umh / subme=11 / psy=1 / psy_rd=0.00:0.15 / mixed_ref=1 / me_range=32 / chroma_me=1 / trellis=2 / 8x8dct=1 / cqm=0 / deadzone=21,11 / fast_pskip=0 / chroma_qp_offset=-3 / threads=6 / lookahead_threads=1 / sliced_threads=0 / nr=0 / decimate=0 / interlaced=0 / bluray_compat=0 / constrained_intra=0 / bframes=10 / b_pyramid=2 / b_adapt=2 / b_bias=0 / direct=1 / weightb=1 / open_gop=0 / weightp=2 / keyint=240 / keyint_min=23 / scenecut=40 / intra_refresh=0 / rc_lookahead=40 / rc=2pass / mbtree=1 / bitrate=1961 / ratetol=1.0 / qcomp=0.65 / qpmin=0 / qpmax=69 / qpstep=4 / cplxblur=20.0 / qblur=0.5 / vbv_maxrate=50000 / vbv_bufsize=65500 / nal_hrd=none / filler=0 / ip_ratio=1.40 / aq=1:1.00
Language                                 : English
Default                                  : Yes
Forced                                   : No

Audio
ID                                       : 2
Format                                   : AC-3
Format/Info                              : Audio Coding 3
Mode extension                           : CM (complete main)
Format settings, Endianness              : Big
Codec ID                                 : A_AC3
Duration                                 : 1 h 33 min
Bit rate mode                            : Constant
Bit rate                                 : 384 kb/s
Channel(s)                               : 6 channels
Channel positions                        : Front: L C R, Side: L R, LFE
Sampling rate                            : 48.0 kHz
Frame rate                               : 31.250 FPS (1536 spf)
Compression mode                         : Lossy
Stream size                              : 256 MiB (16%)
Language                                 : Russian
Default                                  : Yes
Forced                                   : No




Скриншоты:
[+] Всего файлов в раздаче - 1:
TankI.2O18.WEB-DLRip-AVC.by.White Smoke.R.G.Generalfilm.mkv1.53 GB

Текущая раздача:
ДатаКомментарии    РазмерПиры
2018-05-31 U Танки (2018) WEB-DLRip-AVC от Generalfilm | iTunes 1.53 GB ↑ 192 ↓ 70

Показать еще раздачи по запросу танки:
2018-05-31 U Танки (2018) WEB-DLRip-AVC от ExKinoRay | iTunes 1К746.66 MB ↑ 295 ↓ 91
2018-05-31 U Танки (2018) WEB-DLRip-AVC от Rustorka | iTunes 2.18 GB ↑ 272 ↓ 166
2018-05-31 U Танки (2018) WEB-DLRip от GeneralFilm | iTunes 744.79 MB ↑ 415 ↓ 122
2018-05-31 U Танки (2018) WEB-DLRip-AVC от OlLanDGroup | iTunes 1.58 GB ↑ 445 ↓ 178
2017-06-02 U Михаил Барятинский - Броня СССР. Все советские танки (2014) PDF 114.95 MB ↑ 179 ↓ 21
2016-04-21 U Танки Второй Мировой: Т-34 против Тигра (2007) PC | Лицензия 1.62 GB ↑ 527 ↓ 14
2016-01-09 U Евгений Белаш - Танки межвоенного периода. Боевое применение (2014) PDF 195.55 MB ↑ 491 ↓ 4

Отзывы
Зарегистрируйтесь чтобы добавить комментарий.
Обратная связь
Copyleft ©