↑↓Torrent.by
Поиск
Логин: Регистрация
Пароль: Восстановить пароль
Загрузка...

Танки (2018) WEB-DLRip-AVC от Rustorka | iTunes

Скачать tanki-2018-web-dlrip-avc-ot-rustorka-itunes.torrent
U Магнитная ссылка Размер: 2.18 GB Раздают: 997 Качают: 195 Добавлен: 2018-05-31 17:10:33
Танки (2018) WEB-DLRip-AVC от Rustorka  | iTunes

Название: Танки
Год выхода: 2018
Жанр:  приключения, история, военный
Режиссер: Ким Дружинин

В ролях: Андрей Мерзликин (Михаил Кошкин), Аглая Тарасова, Александр Тютин, Сергей Стукалов, Антон Филипенко, Алексей Овсянников (Гоззо), Сергей Четвертков (инженер), Николай Горшков, Дмитрий Поднозов, Юрий Ицков, Мераб Майсурадзе, Владимир Верёвочкин (разведчик)

О фильме: На пороге войны с фашистской Германией инженер Михаил Кошкин разрабатывает прототип нового инновационного танка Т-34. Чтобы доказать уникальность боевой машины, Кошкин и его команда отправляются в Москву на танках своим ходом. Но вскоре пробег превращается в непредсказуемую гонку, где бездорожье лишь меньшее из зол... Пройдя череду опасных приключений и благодаря безупречным техническим и боевым качествам новых танков, героям удается одержать верх над преследователями и доказать превосходство Т-34.

Страна: Россия
Продолжительность: 01:33:13
Перевод: Не требуется | iTunes

Файл
Формат: MKV
Качество: WEB-DLRip-AVC
Видео:  MPEG-4 AVC, 1040x462 (2.25:1), 2904 kbps, 23,976 fps, 0,252 bpp
Аудио: Русский / AC3 / 5.1 / 48 kHz / 384 kbps / 16 bit

Субтитры: Нет

Релиз:  Автор релиза:  Семпл


[+] Media Info

General
Unique ID                                : 116902083709570711458076677833526790438 (0x57F285B93CD804D6CE945541DECAC926)
Complete name                            : E:Tanks.2018.WEB-DLRip-AVC.and77200.mkv
Format                                   : Matroska
Format version                           : Version 4 / Version 2
File size                                : 2.18 GiB
Duration                                 : 1h 33mn
Overall bit rate                         : 3 355 Kbps
Movie name                               : Танки.2018 - and77200
Encoded date                             : UTC 2018-05-31 11:26:02
Writing application                      : mkvmerge v20.0.0 ('I Am The Sun') 64-bit
Writing library                          : libebml v1.3.5 + libmatroska v1.4.8

Video
ID                                       : 1
Format                                   : AVC
Format/Info                              : Advanced Video Codec
Format profile                           : High@L4.1
Format settings, CABAC                   : Yes
Format settings, ReFrames                : 9 frames
Codec ID                                 : V_MPEG4/ISO/AVC
Duration                                 : 1h 33mn
Bit rate                                 : 2 905 Kbps
Width                                    : 1 040 pixels
Height                                   : 462 pixels
Display aspect ratio                     : 2.25:1
Frame rate                               : 23.976 fps
Color space                              : YUV
Chroma subsampling                       : 4:2:0
Bit depth                                : 8 bits
Scan type                                : Progressive
Bits/(Pixel*Frame)                       : 0.252
Stream size                              : 1.89 GiB (87%)
Writing library                          : x264 core 155 r2901M 7d0ff22
Encoding settings                        : cabac=1 / ref=9 / deblock=1:-1:-1 / analyse=0x3:0x133 / me=umh / subme=11 / psy=1 / psy_rd=1.05:0.15 / mixed_ref=1 / me_range=32 / chroma_me=1 / trellis=2 / 8x8dct=1 / cqm=0 / deadzone=21,11 / fast_pskip=0 / chroma_qp_offset=-3 / threads=2 / lookahead_threads=1 / sliced_threads=0 / nr=0 / decimate=1 / interlaced=0 / bluray_compat=0 / constrained_intra=0 / bframes=6 / b_pyramid=2 / b_adapt=2 / b_bias=0 / direct=3 / weightb=1 / open_gop=0 / weightp=2 / keyint=240 / keyint_min=24 / scenecut=40 / intra_refresh=0 / rc_lookahead=60 / rc=crf / mbtree=1 / crf=18.0 / qcomp=0.70 / qpmin=3 / qpmax=69 / qpstep=9 / ip_ratio=1.40 / aq=2:1.00
Language                                 : English
Default                                  : Yes
Forced                                   : No
DURATION                                 : 01:33:13.004000000
NUMBER_OF_FRAMES                         : 134098
NUMBER_OF_BYTES                          : 2076142250
_STATISTICS_WRITING_APP                  : mkvmerge v20.0.0 ('I Am The Sun') 64-bit
_STATISTICS_WRITING_DATE_UTC             : 2018-05-31 11:26:02
_STATISTICS_TAGS                         : BPS DURATION NUMBER_OF_FRAMES NUMBER_OF_BYTES
Color primaries                          : BT.709-5, BT.1361, IEC 61966-2-4, SMPTE RP177
Transfer characteristics                 : BT.709-5, BT.1361
Matrix coefficients                      : BT.709-5, BT.1361, IEC 61966-2-4 709, SMPTE RP177

Audio
ID                                       : 2
Format                                   : AC-3
Format/Info                              : Audio Coding 3
Mode extension                           : CM (complete main)
Codec ID                                 : A_AC3
Duration                                 : 1h 33mn
Bit rate mode                            : Constant
Bit rate                                 : 384 Kbps
Channel(s)                               : 6 channels
Channel positions                        : Front: L C R, Side: L R, LFE
Sampling rate                            : 48.0 KHz
Bit depth                                : 16 bits
Compression mode                         : Lossy
Stream size                              : 256 MiB (11%)
Title                                    : iTunes
Language                                 : Russian
Default                                  : Yes
Forced                                   : No
DURATION                                 : 01:33:13.056000000
NUMBER_OF_FRAMES                         : 174783
NUMBER_OF_BYTES                          : 268466688
_STATISTICS_WRITING_APP                  : mkvmerge v20.0.0 ('I Am The Sun') 64-bit
_STATISTICS_WRITING_DATE_UTC             : 2018-05-31 11:26:02
_STATISTICS_TAGS                         : BPS DURATION NUMBER_OF_FRAMES NUMBER_OF_BYTES



Скриншоты:
[+] Всего файлов в раздаче - 1:
Tanks.2018.WEB-DLRip-AVC.and77200.mkv2.18 GB

Текущая раздача:
ДатаКомментарии    РазмерПиры
2018-05-31 U Танки (2018) WEB-DLRip-AVC от Rustorka | iTunes 2.18 GB ↑ 997 ↓ 195

Показать еще раздачи по запросу танки:
2018-07-30 U Танки (2018) BDRip-HEVC 1080p от ХиМиК 6.42 GB ↑ 122 ↓ 40
2018-07-21 U Танки (2018) BDRip-AVC от OlLanDGroup | Лицензия 1.46 GB ↑ 205 ↓ 45
2018-07-21 U Танки (2018) BDRip от ExKinoRay | Лицензия 1.46 GB ↑ 176 ↓ 8
2018-07-19 U Танки (2018) BDRip от MegaPeer | Лицензия 1.46 GB ↑ 73 ↓ 42
2018-07-18 U Танки (2018) HDRip от GeneralFilm | Лицензия 745.07 MB ↑ 95 ↓ 16
2018-07-16 U Танки (2018) BDRip-AVC | Лицензия 2.06 GB ↑ 159 ↓ 24
2018-07-16 U Танки (2018) BDRip 720p | Лицензия 4.97 GB ↑ 81 ↓ 27

Отзывы
Зарегистрируйтесь чтобы добавить комментарий.
Обратная связь
Copyleft ©