↑↓Torrent.by
Поиск
Логин: Регистрация
Пароль: Восстановить пароль
Загрузка...

Танки (2018) WEB-DLRip-AVC от ExKinoRay | iTunes

Скачать tanki-2018-web-dlrip-avc-ot-exkinoray-itunes.torrent
U Магнитная ссылка Размер: 746.66 MB Раздают: 533 Качают: 99 Добавлен: 2018-05-31 17:10:36
Танки (2018) WEB-DLRip-AVC от ExKinoRay | iTunes

Название: Танки
Год выпуска: 2018
Жанр:  Приключения, история, военный
Режиссер: Ким Дружинин
В ролях: Андрей Мерзликин, Аглая Тарасова, Александр Тютин, Сергей Стукалов, Антон Филипенко, Алексей Овсянников, Сергей Четвертков, Николай Горшков, Дмитрий Поднозов , Юрий Ицков

О фильме :
На пороге войны с фашистской Германией инженер Михаил Кошкин разрабатывает прототип нового инновационного танка Т-34. Чтобы доказать уникальность боевой машины, Кошкин и его команда отправляются в Москву на танках своим ходом. Но вскоре пробег превращается в непредсказуемую гонку, где бездорожье лишь меньшее из зол… Пройдя череду опасных приключений и благодаря безупречным техническим и боевым качествам новых танков, героям удается одержать верх над преследователями и доказать превосходство Т-34.

Страна: Россия, Двадцатый Век Фокс, ПК Медиа-Трест
Продолжительность: 01:33:13
Язык: Русский | iTunes

Файл
Формат: MKV
Качество: WEB-DLRip-AVC
Видео: MPEG-4 AVC, 800x356, ~ 1042 Кбит/с
Аудио:  AAC-HE, 2 ch, ~ 76 Кбит/с
Субтитры: Нет

Релиз:


[+] MI
Общее
Уникальный идентификатор : 222833187651552335408498553031845154448 (0xA7A41C61FC42D2BD853FBC6447930E90)
Полное имя : D:MOVIESTankI.2O18.ExKinoRay.mkv
Формат : Matroska
Версия формата : Version 4 / Version 2
Размер файла : 747 Мбайт
Продолжительность : 1 ч. 33 м.
Общий поток : 1120 Кбит/сек
Дата кодирования : UTC 2018-05-31 09:42:11
Программа кодирования : mkvmerge v15.0.0 ('Duel with the Devil') 64-bit
Библиотека кодирования : libebml v1.3.5 + libmatroska v1.4.5

Видео
Идентификатор : 1
Формат : AVC
Формат/Информация : Advanced Video Codec
Профиль формата : High@L4.1
Параметр CABAC формата : Да
Параметр RefFrames формата : 10 кадров
Идентификатор кодека : V_MPEG4/ISO/AVC
Продолжительность : 1 ч. 33 м.
Битрейт : 1042 Кбит/сек
Ширина : 800 пикселей
Высота : 356 пикселей
Соотношение сторон : 2,25:1
Режим частоты кадров : Постоянный
Частота кадров : 23,976 (24000/1001) кадра/сек
Цветовое пространство : YUV
Субдискретизация насыщенности : 4:2:0
Битовая глубина : 8 бит
Тип развёртки : Прогрессивная
Бит/(Пиксели*Кадры) : 0.153
Размер потока : 695 Мбайт (93%)
Библиотека кодирования : x264 core 152 r2851kMod ba24899
Настройки программы : cabac=1 / ref=10 / deblock=1:-3:-3 / analyse=0x3:0x133 / me=umh / subme=11 / psy=1 / fade_compensate=0.00 / psy_rd=1.00:0.14 / mixed_ref=1 / me_range=32 / chroma_me=1 / trellis=2 / 8x8dct=1 / cqm=0 / deadzone=21,11 / fast_pskip=0 / chroma_qp_offset=-3 / threads=6 / lookahead_threads=1 / sliced_threads=0 / nr=0 / decimate=0 / interlaced=0 / bluray_compat=0 / constrained_intra=0 / bframes=10 / b_pyramid=2 / b_adapt=2 / b_bias=0 / direct=3 / weightb=1 / open_gop=0 / weightp=2 / keyint=240 / keyint_min=23 / scenecut=40 / intra_refresh=0 / rc_lookahead=40 / rc=2pass / mbtree=1 / bitrate=1042 / ratetol=1.0 / qcomp=0.60 / qpmin=0 / qpmax=69 / qpstep=4 / cplxblur=20.0 / qblur=0.5 / vbv_maxrate=50000 / vbv_bufsize=62500 / nal_hrd=none / filler=0 / ip_ratio=1.40 / aq=3:1.00
Default : Да
Forced : Нет

Аудио
Идентификатор : 2
Формат : AAC
Формат/Информация : Advanced Audio Codec
Профиль формата : HE-AAC / LC
Идентификатор кодека : A_AAC
Продолжительность : 1 ч. 33 м.
Битрейт : 76,0 Кбит/сек
Каналы : 2 канала
Расположение каналов : Front: L R
Частота : 48,0 КГц / 24,0 КГц
Частота кадров : 23,438 кадра/сек (1024 SPF)
Метод сжатия : С потерями
Задержка видео : 31 мс.
Размер потока : 50,7 Мбайт (7%)
Default : Да
Forced : Нет



Скриншоты:
[+] Всего файлов в раздаче - 1:
TankI.2O18.ExKinoRay.mkv746.66 MB

Текущая раздача:
ДатаКомментарии    РазмерПиры
2018-05-31 U Танки (2018) WEB-DLRip-AVC от ExKinoRay | iTunes 1 К 746.66 MB ↑ 533 ↓ 99

Показать еще раздачи по запросу танки:
2018-07-30 U Танки (2018) BDRip-HEVC 1080p от ХиМиК 6.42 GB ↑ 53 ↓ 37
2018-07-21 U Танки (2018) BDRip-AVC от OlLanDGroup | Лицензия 1.46 GB ↑ 95 ↓ 35
2018-07-21 U Танки (2018) BDRip от ExKinoRay | Лицензия 1.46 GB ↑ 66 ↓ 6
2018-07-19 U Танки (2018) BDRip от MegaPeer | Лицензия 1.46 GB ↑ 72 ↓ 39
2018-07-18 U Танки (2018) HDRip от GeneralFilm | Лицензия 745.07 MB ↑ 86 ↓ 14
2018-07-16 U Танки (2018) BDRip-AVC | Лицензия 2.06 GB ↑ 63 ↓ 20
2018-07-16 U Танки (2018) BDRip 720p | Лицензия 4.97 GB ↑ 73 ↓ 24

Отзывы
r29blr Оценка: 6
Нормальный фильм .

Зарегистрируйтесь чтобы добавить комментарий.
Обратная связь
Copyleft ©