↑↓Torrent.by
Поиск
Логин: Регистрация
Пароль: Восстановить пароль
Загрузка...

Скиф (2018) BDRemux 1080p | Лицензия

Скачать skif-2018-bdremux-1080p-licenziya.torrent
U Магнитная ссылка Размер: 30.44 GB Раздают: 61 Качают: 55 Добавлен: 2018-05-31 17:11:20
Скиф (2018) BDRemux 1080p |  Лицензия

Название: Скиф
Год выхода: 2018
Жанр: Драма, история, фэнтези, боевик, приключения
Режиссер: Рустам Мосафир
В ролях: Алексей Фаддеев, Виталий Кравченко, Александр Кузнецов, Александр Пацевич, Юрий Цурило, Андрей Пермяков, Василиса Измайлова, Алексей Овсянников, Фёдор Рощин, Рустам Мосафир

О фильме:
Действие фильма происходит во время смены цивилизаций. В Евразии начинается новая эра. Ушли в небытие гордые воины — скифы, их вымирающие потомки превратились в безжалостных наемных убийц, «волков Ареса». Ратнику Лютобору предстоит тяжелое испытание. Втянутый в междоусобные интриги он отправляется в опасный путь ради спасения семьи, а его проводником становится пленный скиф Куница. Они — враги и молятся разным богам, но вынуждены идти вместе. Через дикий степной мир к пристанищу последних скифов, где их ждет почти неминуемая смерть…

 
Страна: Россия
Студия: Кинокомпания СТВ
Продолжительность: 01:44:32
Перевод: Не требуется (русский)

Файл
Кодек: MPEG-4 AVC
Качество: BDRemux 1080p |  Лицензия
Видео: AVC/H.264, 1920x1080, ~33,9 Мbps, 23.976 fps
Звук:
Аудио 1: DTS-HD MA, 6 ch, ~3840 kbps - Русский
Аудио 2: DTS-HD MA, 6 ch, ~3840 kbps - Немецкий
Субтитры: Немецкие


[+] Mediainfo
Общее
Уникальный идентификатор                 : 152982446889024367169622683277921312598 (0x731758F892A432F2CEDDA4284C775F56)
Полное имя                               : Скиф.2017.BDRemux.mkv
Формат                                   : Matroska
Версия формата                           : Version 4 / Version 2
Размер файла                             : 30,4 Гбайт
Продолжительность                        : 1 ч. 44 м.
Режим общего битрейта                    : Переменный
Общий поток                              : 41,7 Мбит/сек
Название фильма                          : Скиф.2017.BDRemux
Дата кодирования                         : UTC 2018-05-30 21:39:48
Программа кодирования                    : mkvmerge v23.0.0 ('The Bride Said No') 64-bit
Библиотека кодирования                   : libebml v1.3.6 + libmatroska v1.4.9

Видео
Идентификатор                            : 1
Формат                                   : AVC
Формат/Информация                        : Advanced Video Codec
Профиль формата                          : High@L4.1
Настройки формата                        : CABAC / 3 Ref Frames
Параметр CABAC формата                   : Да
Параметр RefFrames формата               : 3 кадра
Идентификатор кодека                     : V_MPEG4/ISO/AVC
Продолжительность                        : 1 ч. 44 м.
Вид битрейта                             : Переменный
Битрейт                                  : 33,9 Мбит/сек
Максимальный битрейт                     : 37,0 Мбит/сек
Ширина                                   : 1920 пикселей
Высота                                   : 1080 пикселей
Соотношение сторон                       : 16:9
Режим частоты кадров                     : Постоянный
Частота кадров                           : 23,976 (24000/1001) кадра/сек
Цветовое пространство                    : YUV
Субдискретизация насыщенности            : 4:2:0
Битовая глубина                          : 8 бит
Тип развёртки                            : Прогрессивная
Бит/(Пиксели*Кадры)                      : 0.682
Размер потока                            : 24,8 Гбайт (81%)
Язык                                     : Russian
Default                                  : Да
Forced                                   : Нет

Аудио #1
Идентификатор                            : 2
Формат                                   : DTS
Формат/Информация                        : Digital Theater Systems
Профиль формата                          : MA / Core
Идентификатор кодека                     : A_DTS
Продолжительность                        : 1 ч. 44 м.
Вид битрейта                             : Переменный / Постоянный
Битрейт                                  : 3840 Кбит/сек / 1509 Кбит/сек
Каналы                                   : 6 каналов
Расположение каналов                     : Front: L C R, Side: L R, LFE
Частота                                  : 48,0 КГц
Частота кадров                           : 93,750 кадра/сек (512 SPF)
Битовая глубина                          : 24 бит
Метод сжатия                             : Без потерь / Lossy
Размер потока                            : 2,82 Гбайт (9%)
Язык                                     : Russian
Default                                  : Да
Forced                                   : Нет

Аудио #2
Идентификатор                            : 3
Формат                                   : DTS
Формат/Информация                        : Digital Theater Systems
Профиль формата                          : MA / Core
Идентификатор кодека                     : A_DTS
Продолжительность                        : 1 ч. 44 м.
Вид битрейта                             : Переменный / Постоянный
Битрейт                                  : 3840 Кбит/сек / 1509 Кбит/сек
Каналы                                   : 6 каналов
Расположение каналов                     : Front: L C R, Side: L R, LFE
Частота                                  : 48,0 КГц
Частота кадров                           : 93,750 кадра/сек (512 SPF)
Битовая глубина                          : 24 бит
Метод сжатия                             : Без потерь / Lossy
Размер потока                            : 2,84 Гбайт (9%)
Язык                                     : German
Default                                  : Нет
Forced                                   : Нет

Текст #1
Идентификатор                            : 4
Формат                                   : PGS
Режим смешивания                         : zlib
Идентификатор кодека                     : S_HDMV/PGS
Идентификатор кодека/Информация          : Picture based subtitle format used on BDs/HD-DVDs
Продолжительность                        : 1 ч. 40 м.
Битрейт                                  : 23,8 Кбит/сек
ElementCount                             : 1000
Размер потока                            : 17,1 Мбайт (0%)
Язык                                     : German
Default                                  : Нет
Forced                                   : Нет

Текст #2
Идентификатор                            : 5
Формат                                   : PGS
Режим смешивания                         : zlib
Идентификатор кодека                     : S_HDMV/PGS
Идентификатор кодека/Информация          : Picture based subtitle format used on BDs/HD-DVDs
Продолжительность                        : 1 ч. 26 м.
Битрейт                                  : 68 бит/сек
ElementCount                             : 5
Размер потока                            : 43,7 Кбайт (0%)
Язык                                     : German
Default                                  : Нет
Forced                                   : Нет

Меню
00:00:00.000                             : ru:Chapter 1
00:10:40.556                             : ru:Chapter 2
00:18:16.386                             : ru:Chapter 3
00:29:00.822                             : ru:Chapter 4
00:37:23.491                             : ru:Chapter 5
00:45:32.688                             : ru:Chapter 6
00:53:55.690                             : ru:Chapter 7
01:03:59.335                             : ru:Chapter 8
01:11:56.645                             : ru:Chapter 9
01:22:56.972                             : ru:Chapter 10
01:31:06.127                             : ru:Chapter 11
01:38:28.110                             : ru:Chapter 12
01:44:32.140                             : ru:Chapter 13  



Скриншоты:
[+] Всего файлов в раздаче - 1:
Скиф.2017.BDRemux.mkv30.44 GB

Текущая раздача:
ДатаКомментарии    РазмерПиры
2018-05-31 U Скиф (2018) BDRemux 1080p | Лицензия 30.44 GB ↑ 61 ↓ 55

Показать еще раздачи по запросу скиф:
2018-07-16 U Скиф (2018) BDRip 1080p от HELLYWOOD | Лицензия 1К7.94 GB ↑ 29 ↓ 32
2018-06-25 U Скиф (2018) HDRip-AVC | Лицензия 744.39 MB ↑ 62 ↓ 16
2018-06-11 U Скиф (2018) BDRip-AVC от qusi555 | Лицензия 1.45 GB ↑ 93 ↓ 14
2018-06-11 U Скиф (2018) BDRip 1080p от qusi555 | Лицензия 6.89 GB ↑ 79 ↓ 19
2018-06-05 U Скиф (2018) HDRip от Scarabey | Лицензия 1.45 GB ↑ 251 ↓ 25
2018-06-03 U Скиф (2018) BDRip от GeneralFilm | Лицензия 746.58 MB ↑ 40 ↓ 15
2018-06-03 U Скиф (2018) BDRip от ExKinoRay | Лицензия 1.46 GB ↑ 231 ↓ 36

Отзывы
Зарегистрируйтесь чтобы добавить комментарий.
Обратная связь
Copyleft ©