↑↓Torrent.by
Поиск
Логин: Регистрация
Пароль: Восстановить пароль
Загрузка...

Tomb Raider: Лара Крофт / Tomb Raider (2018) BDRip 1080p | HDrezka Studio

Скачать tomb-raider-lara-kroft-2018-bdrip-1080p-hdrezka-studio.torrent
U Магнитная ссылка Размер: 13.75 GB Раздают: 228 Качают: 424 Добавлен: 2018-06-01 10:20:26
Tomb Raider: Лара Крофт / Tomb Raider (2018) BDRip 1080p | HDrezka Studio

Название: Tomb Raider: Лара Крофт
Оригинальное название: Tomb Raider
Год выхода: 2018
Жанр: Боевик, приключения
Режиссер: Роар Утхауг
В ролях: Алисия Викандер, Доминик Уэст, Уолтон Гоггинс, Дэниэл Ву, Кристин Скотт Томас, Дерек Джекоби, Александр Виллауме, Тамер Барджаг, Эдриан Коллинз, Кинэн Эррисон, Андриан Мазив, Милтон Шорр, Ханна Джон-Кэймен, Питер Уэйсон, Сэмюэл Мак, Скай Янг, Билли Постлтуэйт, Рекха Джон-Чериян, Антонио Аакил, Эмили Кэри, Рэй Лим

О фильме:
Лара Крофт - весьма самостоятельная дочь эксцентричного искателя приключений, который пропал, едва она стала подростком. Теперь ей двадцать один, она бесцельно проживает свою жизнь, курьером рассекая на байке по забитым улицам восточного Лондона, а ее заработка едва хватает на оплату квартиры и занятий в колледже. Решительно настроенная пробиться сама, она отказывается брать на себя руководство глобальной империей отца, столь же категорично отвергая мысль о том, что он действительно пропал. Слыша советы о том, что ей нужно смириться с этим фактом и жить дальше после семи лет бесплодных поисков, Лара уже и сама не понимает, что же заставляет ее распутывать обстоятельства его таинственной смерти.

Страна: Великобритания, США
Студия: Metro-Goldwyn-Mayer (MGM), Square Enix Inc., Warner Bros. Pictures
Продолжительность: 01:57:50
Перевод: Профессиональный многоголосый (HDrezka Studio)

Файл
Кодек: x264
Качество: BDRip 1080p | Tomb.Raider.2018.1080p.BluRay.x264.DTS-HDC
Видео: MPEG-4 AVC, 15.0 Мбит/с, 1920x800
Звук #1: AC3, 2 ch, 192 Кбит/с | Rus
Звук #2: DTS, 6 ch, 1536 Кбит/с | Eng
Субтитры: Английские
[+] MI
Формат                                   : Matroska
Версия формата                           : Version 2
Размер файла                             : 13,7 Гбайт
Продолжительность                        : 1 ч. 57 м.
Общий поток                              : 16,7 Мбит/сек
Название фильма                          : Tomb.Raider.2018.1080p.BluRay.ZGV
Дата кодирования                         : UTC 2018-06-01 02:31:37
Программа кодирования                    : mkvmerge v5.8.0 ('No Sleep / Pillow') built on Sep  2 2012 15:37:04
Библиотека кодирования                   : libebml v1.2.3 + libmatroska v1.3.0
Attachements                             : cover.jpg

Видео
Идентификатор                            : 1
Формат                                   : AVC
Формат/Информация                        : Advanced Video Codec
Профиль формата                          : High@L4.1
Параметр CABAC формата                   : Да
Параметр ReFrames формата                : 5 кадров
Идентификатор кодека                     : V_MPEG4/ISO/AVC
Продолжительность                        : 1 ч. 57 м.
Битрейт                                  : 15,0 Мбит/сек
Ширина                                   : 1920 пикселей
Высота                                   : 800 пикселей
Соотношение сторон                       : 2,40:1
Режим частоты кадров                     : Постоянный
Частота кадров                           : 23,976 кадра/сек
Цветовое пространство                    : YUV
Субдискретизация насыщенности            : 4:2:0
Битовая глубина                          : 8 бит
Тип развёртки                            : Прогрессивная
Бит/(Пиксели*Кадры)                      : 0.407
Размер потока                            : 12,1 Гбайт (88%)
Заголовок                                : Tomb.Raider.2018.1080p.BluRay
Библиотека кодирования                   : x264 core 152 r2851kMod ba24899
Настройки программы                      : cabac=1 / ref=5 / deblock=1:-3:-3 / analyse=0x3:0x133 / me=umh / subme=11 / psy=1 / fade_compensate=0.00 / psy_rd=1.05:0.00 / mixed_ref=1 / me_range=48 / chroma_me=1 / trellis=2 / 8x8dct=1 / cqm=0 / deadzone=21,11 / fast_pskip=0 / chroma_qp_offset=-2 / threads=24 / lookahead_threads=4 / sliced_threads=0 / nr=0 / decimate=0 / interlaced=0 / bluray_compat=0 / constrained_intra=0 / bframes=8 / b_pyramid=2 / b_adapt=2 / b_bias=0 / direct=3 / weightb=1 / open_gop=0 / weightp=2 / keyint=240 / keyint_min=2 / scenecut=40 / intra_refresh=0 / rc=2pass / mbtree=0 / bitrate=15000 / ratetol=1.0 / qcomp=0.70 / qpmin=0 / qpmax=69 / qpstep=4 / cplxblur=20.0 / qblur=0.5 / ip_ratio=1.30 / pb_ratio=1.20 / aq=3:0.80
Язык                                     : English
Default                                  : Да
Forced                                   : Нет

Аудио #1
Идентификатор                            : 2
Формат                                   : AC-3
Формат/Информация                        : Audio Coding 3
Расширение режима                        : CM (complete main)
Параметр Endianness формата              : Big
Идентификатор кодека                     : A_AC3
Продолжительность                        : 1 ч. 57 м.
Вид битрейта                             : Постоянный
Битрейт                                  : 192 Кбит/сек
Каналы                                   : 2 канала
Расположение каналов                     : Front: L R
Частота                                  : 48,0 КГц
Метод сжатия                             : С потерями
Размер потока                            : 162 Мбайт (1%)
Заголовок                                : MVO (HDrezka Studio)
Язык                                     : Russian
Default                                  : Да
Forced                                   : Нет

Аудио #2
Идентификатор                            : 3
Формат                                   : DTS
Формат/Информация                        : Digital Theater Systems
Режим                                    : 16
Параметр Endianness формата              : Big
Идентификатор кодека                     : A_DTS
Продолжительность                        : 1 ч. 57 м.
Вид битрейта                             : Постоянный
Битрейт                                  : 1509 Кбит/сек
Каналы                                   : 6 каналов
Расположение каналов                     : Front: L C R, Side: L R, LFE
Частота                                  : 48,0 КГц
Битовая глубина                          : 24 бит
Метод сжатия                             : С потерями
Размер потока                            : 1,24 Гбайт (9%)
Язык                                     : English
Default                                  : Нет
Forced                                   : Нет

Текст
Идентификатор                            : 4
Формат                                   : UTF-8
Идентификатор кодека                     : S_TEXT/UTF8
Идентификатор кодека/Информация          : UTF-8 Plain Text
Язык                                     : English
Default                                  : Нет
Forced                                   : Нет

Меню
00:00:00.000                             : en:Chapter 01
00:05:08.891                             : en:Chapter 02
00:10:40.056                             : en:Chapter 03
00:16:01.669                             : en:Chapter 04
00:20:57.214                             : en:Chapter 05
00:27:01.161                             : en:Chapter 06
00:32:53.388                             : en:Chapter 07
00:37:43.636                             : en:Chapter 08
00:43:36.155                             : en:Chapter 09
00:49:28.757                             : en:Chapter 10
00:55:40.086                             : en:Chapter 11
01:00:08.479                             : en:Chapter 12
01:05:07.528                             : en:Chapter 13
01:10:51.121                             : en:Chapter 14
01:17:03.368                             : en:Chapter 15
01:25:01.262                             : en:Chapter 16
01:35:37.815                             : en:Chapter 17
01:39:38.889                             : en:Chapter 18
01:48:05.061                             : en:Chapter 19
01:52:37.751                             : en:Chapter 20




Скриншоты:
[+] Всего файлов в раздаче - 1:
Tomb.Raider.2018.1080p.BluRay.ZGV.mkv13.75 GB

Текущая раздача:
ДатаКомментарии    РазмерПиры
2018-06-01 U Tomb Raider: Лара Крофт / Tomb Raider (2018) BDRip 1080p | HDrezka Studio 13.75 GB ↑ 228 ↓ 424

Показать еще раздачи по запросу tomb:
Вчера U Tomb Raider: Лара Крофт / Tomb Raider (2018) BDRip 1080p от Rustorka | 60 fps | Лицензия 15.94 GB ↑ 32 ↓ 22
Вчера U Tomb Raider: Лара Крофт / Tomb Raider (2018) BDRip от HQCLUB | Лицензия 2.18 GB ↑ 42 ↓ 17
2018-06-16 U Tomb Raider: Лара Крофт / Tomb Raider (2018) BDRemux 1080p | US Transfer | D, P, L1 | Лицензия 26.60 GB ↑ 56 ↓ 38
2018-06-15 U Tomb Raider: Лара Крофт / Tomb Raider (2018) BDRip 1080p от Ash61 | 3D-Video | halfOU | Лицензия 8.30 GB ↑ 85 ↓ 102
2018-06-14 U Tomb Raider: Лара Крофт / Tomb Raider (2018) UHD BDRemux 2160p от ExKinoRay | HDR | D, P, L1 | Лицензия 54.05 GB ↑ 54 ↓ 63
2018-06-11 U Tomb Raider: Лара Крофт / Tomb Raider (2018) BDRip-HEVC 1080p от ХиМиК | D, P, L1 8.98 GB ↑ 94 ↓ 81
2018-06-11 U Tomb Raider: Лара Крофт / Tomb Raider (2018) HDRip от Scarabey | Лицензия 1.45 GB ↑ 106 ↓ 82

Отзывы
Зарегистрируйтесь чтобы добавить комментарий.
Обратная связь
Copyleft ©