↑↓Torrent.by
Поиск
Логин: Регистрация
Пароль: Восстановить пароль
Загрузка...

Кодахром / Kodachrome (2017) WEBRip | Jaskier

Скачать kodahrom-kodachrome-2017-webrip-jaskier.torrent
U Магнитная ссылка Размер: 1.45 GB Раздают: 113 Качают: 36 Добавлен: 2018-06-01 10:21:34
Кодахром / Kodachrome (2017) WEBRip | Jaskier

Название: Кодахром
Оригинальное название: Kodachrome
Год выхода: 2017
Жанр: Драма
Режиссер: Марк Расо
В ролях: Элизабет Олсен, Брюс Гринвуд, Эд Харрис, Джейсон Судейкис, Венди Крюсон, Гетин Энтони, Дэннис Хэйсбёрт, Аманда Бругел, Би Сантос, Себастьян Пижотт и другие
О фильме:
Глава звукозаписывающей компании едет в Канзас, чтобы выполнить посмертную просьбу своего отца — проявить фотографии с плёнки «Кодахром». Просьба не так проста, как кажется: во всём мире осталась только одна лаборатория «Кодак», занимающаяся проявкой, и та со дня на день может закрыться.

Страна: США, 21 Laps Entertainment, Gotham Group, Motion Picture Capital
Продолжительность: 01:45:11
Перевод: Профессиональный (многоголосый, закадровый) Jaskier

Файл
Формат: AVI
Качество: WEBRip
Видео: XviD, 720x384, 23.976 fps, 1582 kbps
Звук: AC3, 6 ch, 384 kbps
Субтитры: отсутствуют

***Примечание: Без рекламы.

Релиз от: JASKiER


[+] MI

Общее
Полное имя                               : F:ЗагрузкиKodachrome.2018.WEBRip.Jaskier.avi
Формат                                   : AVI
Формат/Информация                        : Audio Video Interleave
Размер файла                             : 1,45 Гбайт
Продолжительность                        : 1 ч. 45 м.
Общий поток                              : 1975 Кбит/сек
Программа кодирования                    : VirtualDubMod 1.5.10.3 | www.virtualdub-fr.org || (build 2550/release)
Библиотека кодирования                   : VirtualDubMod build 2550/release

Видео
Идентификатор                            : 0
Формат                                   : MPEG-4 Visual
Профиль формата                          : Advanced Simple@L5
Настройки формата                        : BVOP2 / Custom Matrix
Параметр BVOP формата                    : 2
Параметр QPel формата                    : Нет
Параметр GMC формата                     : Без точки перехода
Параметр матрицы формата                 : Выборочная
Идентификатор кодека                     : XVID
Идентификатор кодека/Подсказка           : XviD
Продолжительность                        : 1 ч. 45 м.
Битрейт                                  : 1582 Кбит/сек
Ширина                                   : 720 пикселей
Высота                                   : 384 пикселя
Соотношение сторон                       : 1,85:1
Частота кадров                           : 23,976 (24000/1001) кадра/сек
Цветовое пространство                    : YUV
Субдискретизация насыщенности            : 4:2:0
Битовая глубина                          : 8 бит
Тип развёртки                            : Прогрессивная
Метод сжатия                             : С потерями
Бит/(Пиксели*Кадры)                      : 0.239
Размер потока                            : 1,16 Гбайт (80%)
Библиотека кодирования                   : XviD 73

Аудио
Идентификатор                            : 1
Формат                                   : AC-3
Формат/Информация                        : Audio Coding 3
Идентификатор кодека                     : 2000
Продолжительность                        : 1 ч. 45 м.
Вид битрейта                             : Постоянный
Битрейт                                  : 384 Кбит/сек
Каналы                                   : 6 каналов
Расположение каналов                     : Front: L C R, Side: L R, LFE
Частота                                  : 48,0 КГц
Частота кадров                           : 31,250 кадров/сек (1536 SPF)
Битовая глубина                          : 16 бит
Метод сжатия                             : С потерями
Размер потока                            : 289 Мбайт (19%)
Выравнивание                             : Разделение по промежуткам
Продолжительность промежутка             : 42  мс. (1,00 видеокадр)
Время предзагрузки промежутка            : 500  мс.




Скриншоты:
[+] Всего файлов в раздаче - 1:
Kodachrome.2018.WEBRip.Jaskier.avi1.45 GB

Текущая раздача:
ДатаКомментарии    РазмерПиры
2018-06-01 U Кодахром / Kodachrome (2017) WEBRip | Jaskier 1.45 GB ↑ 113 ↓ 36

Похожие раздачи по запросу - кодахром:
2018-06-01 U Кодахром / Kodachrome (2017) WEBRip 1080p | Jaskier 1К2.99 GB ↑ 55 ↓ 31

Отзывы
Зарегистрируйтесь чтобы добавить комментарий.
Обратная связь
Copyleft ©