↑↓Torrent.by
Поиск
Логин: Регистрация
Пароль: Восстановить пароль
Загрузка...

Собибор (2018) WEB-DLRip-AVC от Generalfilm | iTunes

Скачать sobibor-2018-web-dlrip-avc-ot-generalfilm-itunes.torrent
U Магнитная ссылка Размер: 1.46 GB Раздают: 323 Качают: 211 Добавлен: 2018-06-01 12:49:14
Собибор (2018) WEB-DLRip-AVC от Generalfilm | iTunes

Название: Собибор
Год выпуска: 2018
Страна: Россия
Жанр: военный, драма

Перевод: оригинал [iTunes]
Продолжительность: 01:57:05
Режиссер: Константин Хабенский
В ролях: Константин Хабенский (Александр Печерский), Кристофер Ламберт (Карл Френцель), Фелисе Янкелль (Люка), Дайнюс Казлаускас (Лео), Сергей Годин (Аркадий Вайспапир), Роман Агеев (Борис Цыбульский), Гела Месхи (Семен Розенфельд), Михалина Ольшанска (Ханна), Мария Кожевникова (Сельма), Вольфганг Черны (Густав Вагнер), Филипп Рейнхардт (Зигфрид), Дирк Мартенс (Бэкмен)

Описание:
История сопротивления человеческого духа бездушной машине уничтожения. В октябре 1943 года заключённые лагеря Собибор во главе с лейтенантом Красной Армии Александром Печерским поднимают восстание - единственное успешное восстание в нацистском лагере смерти.

Мировая премьера: 4 мая 2018

Качество: WEB-DLRip-AVC
Формат: MKV
Видео: AVC, 1024x430 (2.40:1), 1403 kbps, 24 fps, 0,133 bpp
Аудио: русский / AC3 / 5.1 / 48 kHz / 384 kbps / ||

Релиз:
[+] ОтчетМедиаИнфо

General
Unique ID                                : 251589803751269905518832778280852250014 (0xBD466F054E3F75DDB3F6D84B63D3DD9E)
Complete name                            : E:запись с твСобибор.2018.WEB-DLRip-AVC.by.White Smoke.R.G.Generalfilm.mkv
Format                                   : Matroska
Format version                           : Version 2
File size                                : 1.46 GiB
Duration                                 : 1 h 57 min
Overall bit rate                         : 1 788 kb/s
Movie name                               : Собибор.2018.WEB-DLRip-AVC.by.White Smoke.R.G.Generalfilm.mkv
Encoded date                             : UTC 2018-06-01 07:04:04
Writing application                      : mkvmerge v7.6.0 ('Garden of Dreams') 32bit built on Feb 11 2015 00:18:47
Writing library                          : libebml v1.3.1 + libmatroska v1.4.2

Video
ID                                       : 1
Format                                   : AVC
Format/Info                              : Advanced Video Codec
Format profile                           : High@L4.1
Format settings, CABAC                   : Yes
Format settings, ReFrames                : 10 frames
Codec ID                                 : V_MPEG4/ISO/AVC
Duration                                 : 1 h 57 min
Bit rate                                 : 1 403 kb/s
Width                                    : 1 024 pixels
Height                                   : 430 pixels
Display aspect ratio                     : 2.40:1
Frame rate mode                          : Constant
Frame rate                               : 24.000 FPS
Color space                              : YUV
Chroma subsampling                       : 4:2:0
Bit depth                                : 8 bits
Scan type                                : Progressive
Bits/(Pixel*Frame)                       : 0.133
Stream size                              : 1.12 GiB (77%)
Writing library                          : x264 core 148 r2638 7599210
Encoding settings                        : cabac=1 / ref=10 / deblock=1:-2:-1 / analyse=0x3:0x113 / me=umh / subme=11 / psy=1 / psy_rd=0.00:0.15 / mixed_ref=1 / me_range=32 / chroma_me=1 / trellis=2 / 8x8dct=1 / cqm=0 / deadzone=21,11 / fast_pskip=0 / chroma_qp_offset=-3 / threads=6 / lookahead_threads=1 / sliced_threads=0 / nr=0 / decimate=0 / interlaced=0 / bluray_compat=0 / constrained_intra=0 / bframes=10 / b_pyramid=2 / b_adapt=2 / b_bias=0 / direct=1 / weightb=1 / open_gop=0 / weightp=2 / keyint=240 / keyint_min=24 / scenecut=40 / intra_refresh=0 / rc_lookahead=40 / rc=2pass / mbtree=1 / bitrate=1403 / ratetol=1.0 / qcomp=0.65 / qpmin=0 / qpmax=69 / qpstep=4 / cplxblur=20.0 / qblur=0.5 / vbv_maxrate=50000 / vbv_bufsize=65500 / nal_hrd=none / filler=0 / ip_ratio=1.40 / aq=1:1.00
Language                                 : English
Default                                  : Yes
Forced                                   : No

Audio
ID                                       : 2
Format                                   : AC-3
Format/Info                              : Audio Coding 3
Mode extension                           : CM (complete main)
Format settings, Endianness              : Big
Codec ID                                 : A_AC3
Duration                                 : 1 h 57 min
Bit rate mode                            : Constant
Bit rate                                 : 384 kb/s
Channel(s)                               : 6 channels
Channel positions                        : Front: L C R, Side: L R, LFE
Sampling rate                            : 48.0 kHz
Frame rate                               : 31.250 FPS (1536 spf)
Compression mode                         : Lossy
Stream size                              : 322 MiB (21%)
Language                                 : Russian
Default                                  : Yes
Forced                                   : No




Скриншоты:
[+] Всего файлов в раздаче - 1:
Собибор.2018.WEB-DLRip-AVC.by.White Smoke.R.G.Generalfilm.mkv1.46 GB

Отзывы
byzas
Смотрел на эту тему забугорный фильм 70 годов.Посмотрим какой лучше. смотреть можно.

_XXX_
Я, наоборот, тот не смотрел, перевод убогий( Этот гляну сразу.

Зарегистрируйтесь чтобы добавить комментарий.
Обратная связь
Copyleft ©