↑↓Torrent.by
Поиск
Логин: Регистрация
Пароль: Восстановить пароль
Загрузка...

Скиф (2018) BDRip-AVC от OlLanDGroup | GER Transfer | Лицензия

Скачать skif-2018-bdrip-avc-ot-ollandgroup-ger-transfer-licenziya.torrent
U Магнитная ссылка Размер: 2.80 GB Раздают: 87 Качают: 40 Добавлен: 2018-06-01 15:55:36
Скиф (2018) BDRip-AVC от OlLanDGroup | GER Transfer | Лицензия

Скиф

Год выпуска: 2018
Страна: Россия
Производство: Кинокомпания СТВ
Жанр:  Драма, история, фэнтези, боевик, приключения

Режиссёр: Рустам Мосафир
В ролях: Алексей Фаддеев, Виталий Кравченко, Александр Кузнецов, Александр Пацевич, Юрий Цурило, Андрей Пермяков, Василиса Измайлова, Алексей Овсянников, Фёдор Рощин, Рустам Мосафир

Перевод: Не требуется | Лицензия
Субтитры: Нет
Реклама: Отсутствует

Описание: Действие фильма происходит во время смены цивилизаций. В Евразии начинается новая эра. Ушли в небытие гордые воины — скифы, их вымирающие потомки превратились в безжалостных наемных убийц, «волков Ареса». Ратнику Лютобору предстоит тяжелое испытание. Втянутый в междоусобные интриги он отправляется в опасный путь ради спасения семьи, а его проводником становится пленный скиф Куница. Они — враги и молятся разным богам, но вынуждены идти вместе. Через дикий степной мир к пристанищу последних скифов, где их ждет почти неминуемая смерть…

Качество: BDRip-AVC
Продолжительность: 01:44:33

Формат: MKV
Видео кодек: MPEG-4 AVC
Аудио кодек: AC3
Видео: 1024x428 (2.40:1), 23,976 fps, x264 ~2 935 kbps avg, 0.279 bit/pixel
Аудио #1: 48 kHz, AC3 Dolby Digital, 3/2 (L,C,R,l,r) + LFE ch, ~448.00 kbps avg | RUS (Лицензия)
Аудио #2: 48 kHz, AC3 Dolby Digital, 3/2 (L,C,R,l,r) + LFE ch, ~448.00 kbps avg | GER

Дата премьеры (мир): 18 января 2018
Дата премьеры (РФ): 18 января 2018, «Наше Кино»

Релиз: Rip by:


[+] MediaInfo

Общее
Уникальный идентификатор                 : 184234740090270235745020928820224424787 (0x8A9A51FD73C9942BAFE10BEA8BEF7B53)
Полное имя                               : E:OlLanDGroupSkif.2018.BDRip(AVC).OlLanDGroup.mkv
Формат                                   : Matroska
Версия формата                           : Version 4 / Version 2
Размер файла                             : 2,80 Гбайт
Продолжительность                        : 1 ч. 44 м.
Общий поток                              : 3832 Кбит/сек
Название фильма                          : Skif.2018   #TorpedoUK#
Дата кодирования                         : UTC 2018-06-01 01:25:52
Программа кодирования                    : mkvmerge v8.3.0 ('Over the Horizon') 64bit
Библиотека кодирования                   : libebml v1.3.1 + libmatroska v1.4.2

Видео
Идентификатор                            : 1
Формат                                   : AVC
Формат/Информация                        : Advanced Video Codec
Профиль формата                          : High@L4.1
Параметр CABAC формата                   : Да
Параметр ReFrames формата                : 10 кадров
Идентификатор кодека                     : V_MPEG4/ISO/AVC
Продолжительность                        : 1 ч. 44 м.
Битрейт                                  : 2935 Кбит/сек
Ширина                                   : 1024 пикселя
Высота                                   : 428 пикселей
Соотношение сторон                       : 2,40:1
Режим частоты кадров                     : Постоянный
Частота кадров                           : 23,976 (24000/1001) кадра/сек
Цветовое пространство                    : YUV
Субдискретизация насыщенности            : 4:2:0
Битовая глубина                          : 8 бит
Тип развёртки                            : Прогрессивная
Бит/(Пиксели*Кадры)                      : 0.279
Размер потока                            : 2,14 Гбайт (77%)
Библиотека кодирования                   : x264 core 146 r2538 121396c
Настройки программы                      : cabac=1 / ref=10 / deblock=1:-3:-3 / analyse=0x3:0x133 / me=umh / subme=11 / psy=1 / psy_rd=1.00:0.03 / mixed_ref=1 / me_range=48 / chroma_me=1 / trellis=2 / 8x8dct=1 / cqm=0 / deadzone=21,11 / fast_pskip=1 / chroma_qp_offset=-3 / threads=6 / lookahead_threads=1 / sliced_threads=0 / nr=0 / decimate=1 / interlaced=0 / bluray_compat=0 / constrained_intra=0 / bframes=10 / b_pyramid=2 / b_adapt=2 / b_bias=0 / direct=3 / weightb=1 / open_gop=0 / weightp=2 / keyint=240 / keyint_min=23 / scenecut=40 / intra_refresh=0 / rc_lookahead=40 / rc=2pass / mbtree=0 / bitrate=2935 / ratetol=1.0 / qcomp=0.60 / qpmin=0 / qpmax=69 / qpstep=4 / cplxblur=20.0 / qblur=0.5 / vbv_maxrate=50000 / vbv_bufsize=62500 / nal_hrd=none / filler=0 / ip_ratio=1.40 / pb_ratio=1.30 / aq=1:1.00
Язык                                     : English
Default                                  : Да
Forced                                   : Нет

Аудио #1
Идентификатор                            : 2
Формат                                   : AC-3
Формат/Информация                        : Audio Coding 3
Расширение режима                        : CM (complete main)
Параметр Endianness формата              : Big
Идентификатор кодека                     : A_AC3
Продолжительность                        : 1 ч. 44 м.
Вид битрейта                             : Постоянный
Битрейт                                  : 448 Кбит/сек
Каналы                                   : 6 каналов
Расположение каналов                     : Front: L C R, Side: L R, LFE
Частота                                  : 48,0 КГц
Частота кадров                           : 31,250 кадров/сек (1536 spf)
Битовая глубина                          : 16 бит
Метод сжатия                             : С потерями
Размер потока                            : 335 Мбайт (12%)
Заголовок                                : License
Язык                                     : Russian
Default                                  : Да
Forced                                   : Нет

Аудио #2
Идентификатор                            : 3
Формат                                   : AC-3
Формат/Информация                        : Audio Coding 3
Расширение режима                        : CM (complete main)
Параметр Endianness формата              : Big
Идентификатор кодека                     : A_AC3
Продолжительность                        : 1 ч. 44 м.
Вид битрейта                             : Постоянный
Битрейт                                  : 448 Кбит/сек
Каналы                                   : 6 каналов
Расположение каналов                     : Front: L C R, Side: L R, LFE
Частота                                  : 48,0 КГц
Частота кадров                           : 31,250 кадров/сек (1536 spf)
Битовая глубина                          : 16 бит
Метод сжатия                             : С потерями
Размер потока                            : 335 Мбайт (12%)
Заголовок                                : License
Язык                                     : German
Default                                  : Нет
Forced                                   : Нет

Меню
00:00:00.000                             : en:00:00:00.000
00:10:40.557                             : en:00:10:40.557
00:18:16.387                             : en:00:18:16.387
00:29:00.822                             : en:00:29:00.822
00:37:23.491                             : en:00:37:23.491
00:45:32.688                             : en:00:45:32.688
00:53:55.691                             : en:00:53:55.691
01:03:59.335                             : en:01:03:59.335
01:11:56.646                             : en:01:11:56.646
01:22:56.972                             : en:01:22:56.972
01:31:06.127                             : en:01:31:06.127
01:38:28.111                             : en:01:38:28.111



Скриншоты:
[+] Всего файлов в раздаче - 1:
Skif.2018.BDRip(AVC).OlLanDGroup.mkv2.80 GB

Текущая раздача:
ДатаКомментарии    РазмерПиры
2018-06-01 U Скиф (2018) BDRip-AVC от OlLanDGroup | GER Transfer | Лицензия 2.80 GB ↑ 87 ↓ 40

Показать еще раздачи по запросу скиф:
2018-06-11 U Скиф (2018) BDRip-AVC от qusi555 | Лицензия 1.45 GB ↑ 46 ↓ 5
2018-06-11 U Скиф (2018) BDRip 1080p от qusi555 | Лицензия 6.89 GB ↑ 35 ↓ 12
2018-06-05 U Скиф (2018) HDRip от Scarabey | Лицензия 1.45 GB ↑ 106 ↓ 14
2018-06-03 U Скиф (2018) BDRip от GeneralFilm | Лицензия 746.58 MB ↑ 33 ↓ 10
2018-06-03 U Скиф (2018) BDRip от ExKinoRay | Лицензия 1.46 GB ↑ 139 ↓ 36
2018-06-03 U Скиф (2018) BDRip от HQ-ViDEO | Лицензия 1.45 GB ↑ 100 ↓ 42
2018-05-31 U Скиф (2018) BDRip 1080p | Лицензия 11.51 GB ↑ 105 ↓ 65

Отзывы
Зарегистрируйтесь чтобы добавить комментарий.
Обратная связь
Copyleft ©