↑↓Torrent.by
Поиск
Логин: Регистрация
Пароль: Восстановить пароль
Загрузка...

Tomb Raider: Лара Крофт / Tomb Raider (2018) HDRip-AVC от OlLanDGroup | HDRezka Studio

Скачать tomb-raider-lara-kroft-2018-hdrip-avc-ot-ollandgroup-hdrezka-studio.torrent
U Магнитная ссылка Размер: 2.23 GB Раздают: 738 Качают: 259 Добавлен: 2018-06-02 11:14:47
Tomb Raider: Лара Крофт / Tomb Raider (2018) HDRip-AVC от OlLanDGroup | HDRezka Studio

Tomb Raider: Лара Крофт / Tomb Raider
«Her legend begins»

Год выпуска: 2018
Страна: Великобритания, США
Производство: Metro-Goldwyn-Mayer (MGM), Square Enix Inc., Warner Bros. Pictures
Жанр:  Боевик, приключения

Режиссёр: Роар Утхауг
В ролях:  Алисия Викандер, Доминик Уэст, Уолтон Гоггинс, Дэниэл Ву, Кристин Скотт Томас, Дерек Джекоби, Александр Виллауме, Тамер Барджаг, Эдриан Коллинз, Кинэн Эррисон, Андриан Мазив, Милтон Шорр, Ханна Джон-Кэймен, Питер Уэйсон, Сэмюэл Мак, Скай Янг, Билли Постлтуэйт, Рекха Джон-Чериян, Антонио Аакил, Эмили Кэри, Рэй Лим

Перевод: Профессиональный (многоголосый, закадровый) | HDrezka Studio
Субтитры: Английские
Реклама: Отсутствует

Описание: Лара Крофт - весьма самостоятельная дочь эксцентричного искателя приключений, который пропал, едва она стала подростком. Теперь ей двадцать один, она бесцельно проживает свою жизнь, курьером рассекая на байке по забитым улицам восточного Лондона, а ее заработка едва хватает на оплату квартиры и занятий в колледже. Решительно настроенная пробиться сама, она отказывается брать на себя руководство глобальной империей отца, столь же категорично отвергая мысль о том, что он действительно пропал. Слыша советы о том, что ей нужно смириться с этим фактом и жить дальше после семи лет бесплодных поисков, Лара уже и сама не понимает, что же заставляет ее распутывать обстоятельства его таинственной смерти.

Качество: HDRip-AVC
Продолжительность: 01:57:50

Формат: MKV
Видео кодек: MPEG-4 AVC
Аудио кодек: AC3
Видео: 1024x426 (2.40:1), 23,976 fps, x264 ~2 063 kbps avg, 0.197 bit/pixel
Аудио #1: 48 kHz, AC3 Dolby Digital, 2 (L,R) ch, ~192.00 kbps avg | RUS (HDRezka)
Аудио #2: 48 kHz, AC3 Dolby Digital, 3/2 (L,C,R,l,r) + LFE ch, ~448.00 kbps avg | ENG

Дата премьеры (мир): 2 марта 2018
Дата премьеры (РФ): 15 марта 2018, «Каро-Премьер»

Релиз: Rip by:


[+] MediaInfo

Общее
Уникальный идентификатор                 : 198639564645224650433878490062134285369 (0x957096AC75B7AA71A55B1A20669D9439)
Полное имя                               : E:OlLanDGroupTomb.Raider.2018.BDRip(AVC).OlLanDGroup.mkv
Формат                                   : Matroska
Версия формата                           : Version 4 / Version 2
Размер файла                             : 2,23 Гбайт
Продолжительность                        : 1 ч. 57 м.
Общий поток                              : 2705 Кбит/сек
Название фильма                          : Tomb.Raider.2018   #TorpedoUK#
Дата кодирования                         : UTC 2018-06-01 18:08:11
Программа кодирования                    : mkvmerge v8.3.0 ('Over the Horizon') 64bit
Библиотека кодирования                   : libebml v1.3.1 + libmatroska v1.4.2

Видео
Идентификатор                            : 1
Формат                                   : AVC
Формат/Информация                        : Advanced Video Codec
Профиль формата                          : High@L4.1
Параметр CABAC формата                   : Да
Параметр ReFrames формата                : 10 кадров
Идентификатор кодека                     : V_MPEG4/ISO/AVC
Продолжительность                        : 1 ч. 57 м.
Битрейт                                  : 2063 Кбит/сек
Ширина                                   : 1024 пикселя
Высота                                   : 426 пикселей
Соотношение сторон                       : 2,40:1
Режим частоты кадров                     : Постоянный
Частота кадров                           : 23,976 (24000/1001) кадра/сек
Цветовое пространство                    : YUV
Субдискретизация насыщенности            : 4:2:0
Битовая глубина                          : 8 бит
Тип развёртки                            : Прогрессивная
Бит/(Пиксели*Кадры)                      : 0.197
Размер потока                            : 1,70 Гбайт (76%)
Библиотека кодирования                   : x264 core 146 r2538 121396c
Настройки программы                      : cabac=1 / ref=10 / deblock=1:-3:-3 / analyse=0x3:0x133 / me=umh / subme=11 / psy=1 / psy_rd=0.99:0.06 / mixed_ref=1 / me_range=48 / chroma_me=1 / trellis=2 / 8x8dct=1 / cqm=0 / deadzone=21,11 / fast_pskip=1 / chroma_qp_offset=-3 / threads=6 / lookahead_threads=1 / sliced_threads=0 / nr=0 / decimate=1 / interlaced=0 / bluray_compat=0 / constrained_intra=0 / bframes=10 / b_pyramid=2 / b_adapt=2 / b_bias=0 / direct=3 / weightb=1 / open_gop=0 / weightp=2 / keyint=240 / keyint_min=23 / scenecut=40 / intra_refresh=0 / rc_lookahead=40 / rc=2pass / mbtree=0 / bitrate=2063 / ratetol=1.0 / qcomp=0.60 / qpmin=0 / qpmax=69 / qpstep=4 / cplxblur=20.0 / qblur=0.5 / vbv_maxrate=50000 / vbv_bufsize=62500 / nal_hrd=none / filler=0 / ip_ratio=1.40 / pb_ratio=1.30 / aq=1:1.00
Язык                                     : English
Default                                  : Да
Forced                                   : Нет

Аудио #1
Идентификатор                            : 2
Формат                                   : AC-3
Формат/Информация                        : Audio Coding 3
Расширение режима                        : CM (complete main)
Параметр Endianness формата              : Big
Идентификатор кодека                     : A_AC3
Продолжительность                        : 1 ч. 57 м.
Вид битрейта                             : Постоянный
Битрейт                                  : 192 Кбит/сек
Каналы                                   : 2 канала
Расположение каналов                     : Front: L R
Частота                                  : 48,0 КГц
Частота кадров                           : 31,250 кадров/сек (1536 spf)
Битовая глубина                          : 16 бит
Метод сжатия                             : С потерями
Размер потока                            : 162 Мбайт (7%)
Заголовок                                : [HDrezka Studio]
Язык                                     : Russian
Default                                  : Да
Forced                                   : Нет

Аудио #2
Идентификатор                            : 3
Формат                                   : AC-3
Формат/Информация                        : Audio Coding 3
Расширение режима                        : CM (complete main)
Параметр Endianness формата              : Big
Идентификатор кодека                     : A_AC3
Продолжительность                        : 1 ч. 57 м.
Вид битрейта                             : Постоянный
Битрейт                                  : 448 Кбит/сек
Каналы                                   : 6 каналов
Расположение каналов                     : Front: L C R, Side: L R, LFE
Частота                                  : 48,0 КГц
Частота кадров                           : 31,250 кадров/сек (1536 spf)
Битовая глубина                          : 16 бит
Метод сжатия                             : С потерями
Размер потока                            : 378 Мбайт (17%)
Заголовок                                : Original
Язык                                     : English
Default                                  : Нет
Forced                                   : Нет

Текст #1
Идентификатор                            : 4
Формат                                   : UTF-8
Идентификатор кодека                     : S_TEXT/UTF8
Идентификатор кодека/Информация          : UTF-8 Plain Text
Продолжительность                        : 1 ч. 50 м.
Битрейт                                  : 31 бит/сек
Count of elements                        : 943
Размер потока                            : 25,2 Кбайт (0%)
Заголовок                                : Full
Язык                                     : English
Default                                  : Нет
Forced                                   : Нет

Текст #2
Идентификатор                            : 5
Формат                                   : UTF-8
Идентификатор кодека                     : S_TEXT/UTF8
Идентификатор кодека/Информация          : UTF-8 Plain Text
Продолжительность                        : 1 ч. 50 м.
Битрейт                                  : 36 бит/сек
Count of elements                        : 1200
Размер потока                            : 29,6 Кбайт (0%)
Заголовок                                : SDH
Язык                                     : English
Default                                  : Нет
Forced                                   : Нет



Скриншоты:
[+] Всего файлов в раздаче - 1:
Tomb.Raider.2018.BDRip(AVC).OlLanDGroup.mkv2.23 GB

Текущая раздача:
ДатаКомментарии    РазмерПиры
2018-06-02 U Tomb Raider: Лара Крофт / Tomb Raider (2018) HDRip-AVC от OlLanDGroup | HDRezka Studio 2.23 GB ↑ 738 ↓ 259

Показать еще раздачи по запросу tomb:
Вчера U Tomb Raider: Лара Крофт / Tomb Raider (2018) BDRip 1080p от Rustorka | 60 fps | Лицензия 15.94 GB ↑ 32 ↓ 22
Вчера U Tomb Raider: Лара Крофт / Tomb Raider (2018) BDRip от HQCLUB | Лицензия 2.18 GB ↑ 42 ↓ 17
2018-06-16 U Tomb Raider: Лара Крофт / Tomb Raider (2018) BDRemux 1080p | US Transfer | D, P, L1 | Лицензия 26.60 GB ↑ 56 ↓ 38
2018-06-15 U Tomb Raider: Лара Крофт / Tomb Raider (2018) BDRip 1080p от Ash61 | 3D-Video | halfOU | Лицензия 8.30 GB ↑ 85 ↓ 102
2018-06-14 U Tomb Raider: Лара Крофт / Tomb Raider (2018) UHD BDRemux 2160p от ExKinoRay | HDR | D, P, L1 | Лицензия 54.05 GB ↑ 54 ↓ 63
2018-06-11 U Tomb Raider: Лара Крофт / Tomb Raider (2018) BDRip-HEVC 1080p от ХиМиК | D, P, L1 8.98 GB ↑ 94 ↓ 81
2018-06-11 U Tomb Raider: Лара Крофт / Tomb Raider (2018) HDRip от Scarabey | Лицензия 1.45 GB ↑ 106 ↓ 82

Отзывы
Зарегистрируйтесь чтобы добавить комментарий.
Обратная связь
Copyleft ©