↑↓Torrent.by
Поиск
Логин: Регистрация
Пароль: Восстановить пароль
Загрузка...

Главный конструктор (1980) DVDRip-AVC

Скачать glavnyy-konstruktor-1980-dvdrip-avc.torrent
U Магнитная ссылка Размер: 1.46 GB Раздают: 49 Качают: 22 Добавлен: 2018-06-02 11:16:46
Главный конструктор (1980) DVDRip-AVC

Название: Главный конструктор
Год выхода: 1980
Жанр:  военный, драма
Режиссер: Владимир Семаков
В ролях: Алексей Крыченков, Александр Пороховщиков, Борис Невзоров, Борис Борисов, Валентина Панина, Владимир Гусев (I), Владимир Суворов, Николай Пеньков, Нуржуман Ихтымбаев, Юрий Каюров

О фильме:
Фильм снят по книге Яков Лазаревича Резника «Сотворение брони». История создания в предвоенные годы советским конструктором М.И.Кошкиным танка «Т—34». Зима 1940 года. До начала Великой Отечественной войны оставалось 16 месяцев. Страна остро нуждалась в современном и надежном вооружении. На одном из военных заводов начальником конструкторского бюро назначают молодого конструктора Михаила Кошкина. Приняв КБ, он всех увлек своим новым проектом танка Т-34. Были созданы две демонстрационные машины, но из заявки на показ новых танков в Кремле их почему-то вычеркивают. Чтобы доказать совершенство своей модели, Кошкин принимает решение идти своим ходом в Москву.

Страна: СССР
Продолжительность: 02:09:53
Язык: Русский

Файл
Качество видео: DVDRip-AVC
Видеокодек: MPEG-4 AVC/H.264
Битрейт видео: ~1416 Kbps
Размер кадра: 704x480
Аудиокодек: AC3 2.0
Битрейт аудио: 192 kbps


[+] M/I
General
Unique ID : 203305089201900719424121471047393704044 (0x98F322CB42F82B5F9705A7D61365786C)
Complete name : Glavnii.Constructor.1980.DVDRip.mkv
Format : Matroska
Format version : Version 4 / Version 2
File size : 1.46 GiB
Duration : 2h 9mn
Overall bit rate : 1 609 Kbps
Encoded date : UTC 2014-05-10 13:42:58
Writing application : mkvmerge v6.7.0 ('Back to the Ground') 64bit built on Jan 8 2014 15:10:52
Writing library : libebml v1.3.0 + libmatroska v1.4.1

Video
ID : 1
Format : AVC
Format/Info : Advanced Video Codec
Format profile : High@L4.1
Format settings, CABAC : Yes
Format settings, ReFrames : 8 frames
Codec ID : V_MPEG4/ISO/AVC
Duration : 2h 9mn
Bit rate : 1 416 Kbps
Width : 704 pixels
Height : 480 pixels
Display aspect ratio : 3:2
Frame rate mode : Constant
Frame rate : 25.000 fps
Standard : NTSC
Color space : YUV
Chroma subsampling : 4:2:0
Bit depth : 8 bits
Scan type : Progressive
Bits/(Pixel*Frame) : 0.168
Stream size : 1.26 GiB (86%)
Writing library : x264 core 130 r2274bm c832fe9
Encoding settings : cabac=1 / ref=8 / deblock=1:0:0 / analyse=0x3:0x133 / me=umh / subme=9 / psy=1 / psy_rd=1.00:0.00 / mixed_ref=1 / me_range=16 / chroma_me=1 / trellis=2 / 8x8dct=1 / cqm=0 / deadzone=21,11 / fast_pskip=1 / chroma_qp_offset=-2 / threads=3 / lookahead_threads=1 / sliced_threads=0 / nr=0 / decimate=1 / interlaced=0 / bluray_compat=0 / constrained_intra=0 / bframes=3 / b_pyramid=2 / b_adapt=2 / b_bias=0 / direct=3 / weightb=1 / open_gop=0 / weightp=2 / keyint=250 / keyint_min=25 / scenecut=40 / intra_refresh=0 / rc_lookahead=60 / rc=2pass / mbtree=1 / bitrate=1416 / ratetol=1.0 / qcomp=0.60 / qpmin=0 / qpmax=69 / qpstep=4 / cplxblur=20.0 / qblur=0.5 / ip_ratio=1.40 / aq=1:1.00
Default : Yes
Forced : No

Audio
ID : 2
Format : AC-3
Format/Info : Audio Coding 3
Mode extension : CM (complete main)
Format settings, Endianness : Big
Codec ID : A_AC3
Duration : 2h 9mn
Bit rate mode : Constant
Bit rate : 192 Kbps
Channel(s) : 2 channels
Channel positions : Front: L R
Sampling rate : 44.1 KHz
Bit depth : 16 bits
Compression mode : Lossy
Stream size : 178 MiB (12%)
Default : Yes
Forced : No



Скриншоты:
[+] Всего файлов в раздаче - 1:
Glavnii.Constructor.1980.DVDRip.mkv1.46 GB

Текущая раздача:
ДатаКомментарии    РазмерПиры
2018-06-02 U Главный конструктор (1980) DVDRip-AVC 1.46 GB ↑ 49 ↓ 22

Показать еще раздачи по запросу главный:
2018-01-06 U Главный (2015) WEB-DL 1080p | iTunes 4.16 GB ↑ 162 ↓ 32
2018-01-02 U Главный новогодний концерт(2017) WEBRip от Files-х 1.57 GB ↑ 172 ↓ 55
2018-01-01 U Главный новогодний концерт [эфир от 31.12] (2017) HDTV 1080i 11.40 GB ↑ 52 ↓ 57
2017-11-30 U Роговин Вадим - Главный враг Сталина. Как был убит Троцкий (2017) FB2 946.48 kB ↑ 151 ↓ 6
2016-02-22 U Главный (2015) WEB-DLRip-AVC | iTunes 1.46 GB ↑ 185 ↓ 42
2016-02-21 U Главный (2015) WEB-DLRip | iTunes 743.47 MB ↑ 162 ↓ 12
2016-02-21 U Главный (2015) WEB-DLRip от Twi7ter | iTunes 1.46 GB ↑ 415 ↓ 110

Отзывы
Зарегистрируйтесь чтобы добавить комментарий.
Обратная связь
Copyleft ©