↑↓Torrent.by
Поиск
Логин: Регистрация
Пароль: Восстановить пароль
Загрузка...

Космические дальнобойщики / Space Truckers (1996) BDRip 720p | P, P2, A

Скачать kosmicheskie-dalnoboyschiki-space-truckers-1996-bdrip-720p-p-p2-a.torrent
U Магнитная ссылка Размер: 5.56 GB Раздают: 277 Качают: 87 Добавлен: 2018-06-03 09:21:31
Космические дальнобойщики / Space Truckers (1996) BDRip 720p | P, P2, A

Название: Космические дальнобойщики
Оригинальное название: Space Truckers
Год выхода: 1996
Жанр:  Фантастика, Триллер, Приключения
Режиссер: Stuart Gordon / Стюарт Гордон
Оператор: Mac Ahlberg / Мак Олберг
Композитор: Colin Towns / Колин Таунс

В ролях: Деннис Хоппер / Dennis Hopper ( John Canyon ), Деби Мейзар / Debi Mazar ( Cindy ), Олвен Фуэр / Olwen Fouere ( Building Commander ), Чарльз Дэнс / Charles Dance ( Nabel / Macanudo ), Шэйн Риммер / Shane Rimmer ( E. J. Saggs ), Джордж Уэндт / George Wendt ( Keller ) и другие.

О фильме:
2196 год. Водитель, перевозящий грузы на далекие планеты, хочет остаться независимым от могущественной корпорации. Поэтому за большие деньги он берётся перевезти сомнительный груз. Чтобы сократить путь, он направляется через Галактику, где царит разбой и пиратство. С самого начала у Джона возникают сомнения относительно перевозимого им груза, но он пытается себя побороть и отвезти мысли о вскрытии контейнеров...

Страна: Великобритания, США, Ирландия
Выпущено: Goldcrest Films International, Peter Newman Productions, InterAL, Mary Breen-Farrelly Productions, Investment Incentives for the Irish Film Industry, Pachyderm Production
Графика: Electric Image, Cannom Creations, Optic Nerve Studios, SMG Effects
Продолжительность: 01:36:21
Перевод: Профессиональный (многоголосый, закадровый) + профессиональный (двухголосый, закадровый) + авторский (одноголосый, закадровый)
Субтитры: Английские

Файл
Кодек: x264
Качество: BDRip 720p
Видео: MPEG-4 AVC, 7200 Кбит/с, 1280x544
Аудио 1: Russian; AC3; 48.0 KHz; 6ch; 448 Kbps || MVO ТВЦ
Аудио 2: Russian; AC3; 48.0 KHz; 2ch; 192 Kbps || DVO НТВ (Текст читают Алексей Инжеватов и Людмила Гнилова)
Аудио 3: Russian; AC3; 48.0 KHz; 2ch; 192 Kbps || AVO Юрий Сербин
Аудио 4: English; AC3; 48.0 KHz; 2ch; 224 Kbps || Original
Формат субтитров: PGS


[+] M/I
General
Unique ID                   : 218848782592059676547659744856259544272 (0xA4A4BE0BDF984D8F9BC0B0BE2BE9C4D0)
Complete name               : F:FILMSКосмические дальнобойщики.1996.BDRip.720p.mkv
Format                      : Matroska
Format version              : Version 4 / Version 2
File size                   : 5.56 GiB
Duration                    : 1 h 36 min
Overall bit rate            : 8 266 kb/s
Encoded date                : UTC 2018-05-31 05:20:36
Writing application         : mkvmerge v15.0.0 ('Duel with the Devil') 64-bit
Writing library             : libebml v1.3.5 + libmatroska v1.4.5

Video
ID                          : 1
Format                      : AVC
Format/Info                 : Advanced Video Codec
Format profile              : High@L4.1
Format settings             : CABAC / 9 Ref Frames
Format settings, CABAC      : Yes
Format settings, ReFrames   : 9 frames
Codec ID                    : V_MPEG4/ISO/AVC
Duration                    : 1 h 36 min
Bit rate                    : 7 200 kb/s
Width                       : 1 280 pixels
Height                      : 544 pixels
Display aspect ratio        : 2.35:1
Frame rate mode             : Constant
Frame rate                  : 24.000 FPS
Color space                 : YUV
Chroma subsampling          : 4:2:0
Bit depth                   : 8 bits
Scan type                   : Progressive
Bits/(Pixel*Frame)          : 0.431
Stream size                 : 4.84 GiB (87%)
Title                       : Space.Truckers.1996.720p.BDRip-MM
Writing library             : x264 core 146 r2538 121396c
Encoding settings           : cabac=1 / ref=9 / deblock=1:-3:-3 / analyse=0x3:0x133 / me=umh / subme=11 / psy=1 / psy_rd=1.00:0.00 / mixed_ref=1 / me_range=48 / chroma_me=1 / trellis=2 / 8x8dct=1 / cqm=0 / deadzone=21,11 / fast_pskip=0 / chroma_qp_offset=-2 / threads=12 / lookahead_threads=3 / sliced_threads=0 / nr=0 / decimate=0 / interlaced=0 / bluray_compat=0 / constrained_intra=0 / bframes=11 / b_pyramid=2 / b_adapt=2 / b_bias=0 / direct=3 / weightb=1 / open_gop=1 / weightp=2 / keyint=250 / keyint_min=23 / scenecut=40 / intra_refresh=0 / rc_lookahead=60 / rc=2pass / mbtree=1 / bitrate=7200 / ratetol=1.0 / qcomp=0.60 / qpmin=0 / qpmax=69 / qpstep=4 / cplxblur=20.0 / qblur=0.5 / vbv_maxrate=50000 / vbv_bufsize=62500 / nal_hrd=none / filler=0 / ip_ratio=1.40 / aq=1:1.10
Language                    : English
Default                     : Yes
Forced                      : No

Audio #1
ID                          : 2
Format                      : AC-3
Format/Info                 : Audio Coding 3
Codec ID                    : A_AC3
Duration                    : 1 h 36 min
Bit rate mode               : Constant
Bit rate                    : 448 kb/s
Channel(s)                  : 6 channels
Channel positions           : Front: L C R, Side: L R, LFE
Sampling rate               : 48.0 kHz
Frame rate                  : 31.250 FPS (1536 SPF)
Bit depth                   : 16 bits
Compression mode            : Lossy
Stream size                 : 309 MiB (5%)
Title                       : MVO ТВЦ
Language                    : Russian
Service kind                : Complete Main
Default                     : Yes
Forced                      : No

Audio #2
ID                          : 3
Format                      : AC-3
Format/Info                 : Audio Coding 3
Codec ID                    : A_AC3
Duration                    : 1 h 36 min
Bit rate mode               : Constant
Bit rate                    : 192 kb/s
Channel(s)                  : 2 channels
Channel positions           : Front: L R
Sampling rate               : 48.0 kHz
Frame rate                  : 31.250 FPS (1536 SPF)
Bit depth                   : 16 bits
Compression mode            : Lossy
Stream size                 : 132 MiB (2%)
Title                       : DVO НТВ
Language                    : Russian
Service kind                : Complete Main
Default                     : No
Forced                      : No

Audio #3
ID                          : 4
Format                      : AC-3
Format/Info                 : Audio Coding 3
Codec ID                    : A_AC3
Duration                    : 1 h 36 min
Bit rate mode               : Constant
Bit rate                    : 192 kb/s
Channel(s)                  : 2 channels
Channel positions           : Front: L R
Sampling rate               : 48.0 kHz
Frame rate                  : 31.250 FPS (1536 SPF)
Bit depth                   : 16 bits
Compression mode            : Lossy
Stream size                 : 132 MiB (2%)
Title                       : AVO Юрий Сербин
Language                    : Russian
Service kind                : Complete Main
Default                     : No
Forced                      : No

Audio #4
ID                          : 5
Format                      : AC-3
Format/Info                 : Audio Coding 3
Codec ID                    : A_AC3
Duration                    : 1 h 36 min
Bit rate mode               : Constant
Bit rate                    : 224 kb/s
Channel(s)                  : 2 channels
Channel positions           : Front: L R
Sampling rate               : 48.0 kHz
Frame rate                  : 31.250 FPS (1536 SPF)
Bit depth                   : 16 bits
Compression mode            : Lossy
Stream size                 : 154 MiB (3%)
Title                       : Original
Language                    : English
Service kind                : Complete Main
Default                     : No
Forced                      : No

Text
ID                          : 6
Format                      : PGS
Muxing mode                 : zlib
Codec ID                    : S_HDMV/PGS
Codec ID/Info               : Picture based subtitle format used on BDs/HD-DVDs
Duration                    : 1 h 36 min
Bit rate                    : 45.2 kb/s
Count of elements           : 2554
Stream size                 : 31.1 MiB (1%)
Language                    : English
Default                     : Yes
Forced                      : No



[+] Дополнительно
ЦитатаКто-то писал:Рип с Space Truckers 1996 1080p GBR Blu-ray AVC LPCM 2.0 от Second Sight
Синхронизация звука - GoldDust.

За дорожки DVO НТВ и AVO Сербин спасибо Fikaloid (запись и оцифровка с VHS)



[+] Интересно
- Дизайн биомеханических воинов был разработан японским иллюстратором Хадзиме Сораямой, известным своими нарисованными вручную фотореалистичными эротическими изображениями женщин и женоподобных роботов-гиноидов, автором дизайна AIBO.
Бывший монтажер серии "National Lampoons" Тед Манн, написавший сценарий к этому фильму, назвал его "Первым космическим дорожным фильмом". По словам Манна, в фильме нет ученых, ни техников, ни блестящего и стерильного окружения, которое обычно используется в фильмах про космос. Космос такой же, как и всё вокруг - люди, которые там находятся, малооплачиваемы и никем не уважаемы.
Фильм снимался на студии Ардмор, графство Уиклоу, Ирландия.
Вернон Уэллс сыграл эпизодическую роль космического пирата.
- В фильме пренебрегают законами гравитации и физикой. Наиболее ярким примером является вертикальное пламя зажигалки в месте, где нет воздуха и силы тяжести.



Скриншоты:
[+] Всего файлов в раздаче - 1:
Space.Truckers.1996.BDRip.720p.mkv5.56 GB

Показать еще раздачи по запросу космические:
2019-06-10 U Космические рейнджеры HD: Революция / Space Rangers HD: A War Apart [v 2.1.2288.3] (2013) PC | Лицензия 5.25 GB ↑ 37 ↓ 29
2019-04-09 U Космические инженеры / Space Engineers [v 1.190.008] (2019) PC | RePack от xatab 5.25 GB ↑ 44 ↓ 24
2019-03-01 U Космические Инженеры / Space Engineers [v 1.189.039] (2019) PC | RePack от xatab 5.19 GB ↑ 154 ↓ 88
2018-06-29 U Космические дальнобойщики / Space Truckers (1996) BDRip 1080p | P, P2, A 9.84 GB ↑ 31 ↓ 30
2018-06-03 U Космические дальнобойщики / Space Truckers (1996) HDRip-AVC | P 744.95 MB ↑ 33 ↓ 18
2018-06-03 U Космические дальнобойщики / Space Truckers (1996) HDRip | P 1.45 GB ↑ 69 ↓ 17
2018-04-06 U Космические уборщики / Space Janitors [s01] (2012) WEBRip 720 | L1 797.24 MB ↑ 260 ↓ 14

Отзывы
Зарегистрируйтесь чтобы добавить комментарий.
Обратная связь
Copyleft ©