↑↓Torrent.by
Поиск
Логин: Регистрация
Пароль: Восстановить пароль
Загрузка...

Уральские пельмени - Азбука Уральских Пельменей - А (2018) WEBRip 1080p

Скачать uralskie-pelmeni-azbuka-uralskih-pelmeney-a-2018-webrip-1080p.torrent
U Магнитная ссылка Размер: 1.20 GB Раздают: 779 Качают: 162 Добавлен: 2018-06-04 05:02:34
Уральские пельмени - Азбука Уральских Пельменей - А (2018) WEBRip 1080p

Название: Уральские пельмени - Азбука Уральских Пельменей - А
Год выхода: 2018
Жанр: ТВ-шоу, юмор, сатира, развлекательный
Режиссер: Анастастия Ширина, Леонид Коновалов
В ролях: Дмитрий Брекоткин, Сергей Ершов, Сергей Исаев, Сергей Калугин, Вячеслав Мясников, Александр Попов, Андрей Рожков, Дмитрий Соколов (V), Максим Ярица, Юлия Михалкова, Стефания-Марьяна Гурская, Илана Юрьева, Ксения Корнева

О фильме:
То, что осталось за кадром! Цикл выпусков с невошедшими миниатюрами и скетчами. А также самые смешные ляпы и оговорки!

Страна: Россия
Продолжительность: 01:12:32

Файл
Кодек: MPEG-4 AVC
Качество: WEBRip 1080p
Видео: 1920x1080, 2275 Кбит/с, 25 fps
Звук: AAC-LC, 2 ch, 96 kb/s

Релиз от: music80
[+] MediaInfo:
General
Complete name                  : F:_NetworkVideoУральские пельмени - Азбука Уральских Пельменей - А.mp4
Format                         : MPEG-4
Format profile                 : Base Media
Codec ID                       : isom (isom/iso2/avc1/mp41)
File size                      : 1.20 GiB
Duration                       : 1 h 12 min
Overall bit rate               : 2 375 kb/s
Writing application            : Lavf56.40.101

Video
ID                             : 1
Format                         : AVC
Format/Info                    : Advanced Video Codec
Format profile                 : High@L4
Format settings                : CABAC / 3 Ref Frames
Format settings, CABAC         : Yes
Format settings, ReFrames      : 3 frames
Codec ID                       : avc1
Codec ID/Info                  : Advanced Video Coding
Duration                       : 1 h 12 min
Duration_FirstFrame            : -40 ms
Bit rate                       : 2 275 kb/s
Width                          : 1 920 pixels
Height                         : 1 080 pixels
Display aspect ratio           : 16:9
Frame rate mode                : Variable
Frame rate                     : 25.000 FPS
Minimum frame rate             : 25.000 FPS
Maximum frame rate             : 25.014 FPS
Color space                    : YUV
Chroma subsampling             : 4:2:0
Bit depth                      : 8 bits
Scan type                      : Progressive
Bits/(Pixel*Frame)             : 0.044
Stream size                    : 1.15 GiB (96%)
Color range                    : Limited
Color primaries                : BT.709
Transfer characteristics       : BT.709
Matrix coefficients            : BT.709

Audio
ID                             : 2
Format                         : AAC
Format/Info                    : Advanced Audio Codec
Format profile                 : LC
Codec ID                       : mp4a-40-2
Duration                       : 1 h 12 min
Bit rate mode                  : Constant
Bit rate                       : 93.6 kb/s
Channel(s)                     : 2 channels
Channel(s)_Original            : 1 channel
Channel positions              : Front: C
Sampling rate                  : 44.1 kHz
Frame rate                     : 43.066 FPS (1024 SPF)
Compression mode               : Lossy
Stream size                    : 48.6 MiB (4%)
Default                        : Yes
Alternate group                : 1



Скриншоты:
[+] Всего файлов в раздаче - 1:
Уральские пельмени - Азбука Уральских Пельменей - А.mp41.20 GB

Показать еще раздачи по запросу уральские:
2019-02-22 U Уральские Пельмени - ЖИ-ШИ прилетели [эфир от 15.02] (2019) WEBRip 720p 462.36 MB ↑ 22 ↓ 14
2019-02-19 U Уральские пельмени - Пляжный шизон [эфир от 08.02] (2019) WEBRip 720p 1.28 GB ↑ 110 ↓ 37
2019-02-16 U Уральские Пельмени - ЖИ-ШИ прилетели [эфир от 15.02] (2019) WEBRip 1080p 2.40 GB ↑ 256 ↓ 100
2019-02-16 U Уральские Пельмени - ЖИ-ШИ прилетели [эфир от 15.02] (2019) SATRip 923.84 MB ↑ 740 ↓ 121
2019-02-09 U Уральские пельмени - Пляжный шизон [эфир от 08.02] (2019) WEBRip 1080p 2.40 GB ↑ 288 ↓ 128
2019-02-07 U Уральские пельмени - День сырка [эфир от 01.02] (2019) WEBRip 720p 580.59 MB ↑ 126 ↓ 31
2019-02-02 U Уральские пельмени - День сырка [эфир от 01.02] (2019) WEBRip 1080p 2.45 GB ↑ 381 ↓ 184

Отзывы
Зарегистрируйтесь чтобы добавить комментарий.
Обратная связь
Copyleft ©