↑↓Torrent.by
Поиск
Логин: Регистрация
Пароль: Восстановить пароль
Загрузка...

Пир 3: Счастливая кончина / Feast III: The Happy Finish (2009) DVDRip-AVC | L2, L1

Скачать pir-3-schastlivaya-konchina-feast-iii-the-happy-finish-2009-dvdrip-avc-l2-l1.torrent
U Магнитная ссылка Размер: 2.07 GB Раздают: 48 Качают: 14 Добавлен: 2018-06-04 12:12:45
Пир 3: Счастливая кончина / Feast III: The Happy Finish (2009) DVDRip-AVC | L2, L1

Название: Пир 3: Счастливая кончина
Оригинальное название: Feast III: The Happy Finish
Год выхода: 2009

Страна: США
Студия: Dimension Extreme, Neo Art & Logic, LivePlanet
Продолжительность: 01:16:55
Жанр: ужасы, боевик, триллер, комедия

Режиссер: Джон Гулагер
В ролях: Дженни Уэйд, Мартин Клебба, Карл Энтони Пэйн II, Крейг Хенингсен, Хуан Лонгориа Гарсия, Дайан Голднер, Ханна Путнэм, Том Гулажер, Уильям Праэль, Челси Ричардс, ...

Перевод:
- Любительский (двуголосый, закадровый) ?
- Авторский (одноголосый, закадровый) RussianGuy27

О фильме: Чудом выживших в городке людей спасает таинственный проповедник по имени Short Bus Gus, который каким то образом научился контролировать зверье. По тунелям канализации он уводит выживших в большой город. По пути они встречают эксперта по восточным единоборствам и узнают от него о месте под названием «Улей». В жизни всегда есть место подвигу. Выжившие собравшись с силами, решают уничтожить логово чудовищ раз и навсегда…

Кодек: x264
Качество: DVDRip-AVC
Видео: 848x368, 2500 kbps, 23,976  fps
Аудио #1: AC-3, 6 ch, 448 kbps (Rus) - DVOL
Аудио #2: AC-3, 6 ch, 448 kbps (Rus) - AVO RussianGuy27
Аудио #3: AC-3, 6 ch, 448 kbps (Eng)
Субтитры: нет


[+] Дополнительная информация
За исходник спасибо - VoVochkaBest



[+] MediaInfo

x264 [info]: frame I:654   Avg QP:15.71  size: 45479
x264 [info]: frame P:28704 Avg QP:18.22  size: 22300
x264 [info]: frame B:81292 Avg QP:20.11  size:  9489
x264 [info]: consecutive B-frames:  3.9%  5.6% 13.2% 24.9% 20.9% 25.4%  3.7%  0.8%  0.4%  0.5%  0.3%  0.1%  0.2%

Общее
Уникальный идентификатор : 249665165854337605821023790493343991392 (0xBBD3C30BCEE03AD498963B9EF5A0C660)
Полное имя : Пир 3 Счастливая кончина (Feast III The Happy Finish) 2009 DVDRip.mkv
Формат : Matroska
Версия формата : Version 2
Размер файла : 2,07 Гбайт
Продолжительность : 1 ч. 16 м.
Общий поток : 3845 Кбит/сек
Дата кодирования : UTC 2018-06-03 19:32:05
Программа кодирования : mkvmerge v4.0.0 ('The Stars were mine') сборка от Jun 6 2010 16:18:42
Библиотека кодирования : libebml v1.0.0 + libmatroska v1.0.0

Видео
Идентификатор : 1
Формат : AVC
Формат/Информация : Advanced Video Codec
Профиль формата : High@L4.1
Параметр CABAC формата : Да
Параметр ReFrames формата : 12 кадров
Идентификатор кодека : V_MPEG4/ISO/AVC
Продолжительность : 1 ч. 16 м.
Битрейт : 2500 Кбит/сек
Ширина : 848 пикселей
Высота : 368 пикселей
Соотношение сторон : 2,35:1
Режим частоты кадров : Постоянный
Частота кадров : 23,976 (24000/1001) кадра/сек
Цветовое пространство : YUV
Субдискретизация насыщенности : 4:2:0
Битовая глубина : 8 бит
Тип развёртки : Прогрессивная
Бит/(Пиксели*Кадры) : 0.334
Размер потока : 1,30 Гбайт (63%)
Библиотека кодирования : x264 core 146 r2538 121396c
Настройки программы : cabac=1 / ref=12 / deblock=1:-1:-1 / analyse=0x3:0x133 / me=umh / subme=11 / psy=1 / psy_rd=1.00:0.00 / mixed_ref=1 / me_range=32 / chroma_me=1 / trellis=2 / 8x8dct=1 / cqm=0 / deadzone=21,11 / fast_pskip=0 / chroma_qp_offset=-2 / threads=12 / lookahead_threads=2 / sliced_threads=0 / nr=0 / decimate=0 / interlaced=0 / bluray_compat=0 / constrained_intra=0 / bframes=12 / b_pyramid=2 / b_adapt=2 / b_bias=0 / direct=3 / weightb=1 / open_gop=0 / weightp=2 / keyint=240 / keyint_min=23 / scenecut=40 / intra_refresh=0 / rc=2pass / mbtree=0 / bitrate=2500 / ratetol=1.0 / qcomp=0.60 / qpmin=0 / qpmax=69 / qpstep=4 / cplxblur=20.0 / qblur=0.5 / ip_ratio=1.40 / pb_ratio=1.30 / aq=2:0.80
Язык : English
Default : Нет
Forced : Нет

Аудио #1
Идентификатор : 2
Формат : AC-3
Формат/Информация : Audio Coding 3
Расширение режима : CM (complete main)
Параметр Endianness формата : Big
Идентификатор кодека : A_AC3
Продолжительность : 1 ч. 16 м.
Вид битрейта : Постоянный
Битрейт : 448 Кбит/сек
Каналы : 6 каналов
Расположение каналов : Front: L C R, Side: L R, LFE
Частота : 48,0 КГц
Частота кадров : 31,250 кадров/сек (1536 spf)
Метод сжатия : С потерями
Размер потока : 246 Мбайт (12%)
Заголовок : DVO
Язык : Russian
Default : Нет
Forced : Нет

Аудио #2
Идентификатор : 3
Формат : AC-3
Формат/Информация : Audio Coding 3
Расширение режима : CM (complete main)
Параметр Endianness формата : Big
Идентификатор кодека : A_AC3
Продолжительность : 1 ч. 16 м.
Вид битрейта : Постоянный
Битрейт : 448 Кбит/сек
Каналы : 6 каналов
Расположение каналов : Front: L C R, Side: L R, LFE
Частота : 48,0 КГц
Частота кадров : 31,250 кадров/сек (1536 spf)
Метод сжатия : С потерями
Размер потока : 246 Мбайт (12%)
Заголовок : VO Сергеев (Черкасов) Сергей (RussianGuy27)
Язык : Russian
Default : Нет
Forced : Нет

Аудио #3
Идентификатор : 4
Формат : AC-3
Формат/Информация : Audio Coding 3
Расширение режима : CM (complete main)
Параметр Endianness формата : Big
Идентификатор кодека : A_AC3
Продолжительность : 1 ч. 16 м.
Вид битрейта : Постоянный
Битрейт : 448 Кбит/сек
Каналы : 6 каналов
Расположение каналов : Front: L C R, Side: L R, LFE
Частота : 48,0 КГц
Частота кадров : 31,250 кадров/сек (1536 spf)
Метод сжатия : С потерями
Размер потока : 246 Мбайт (12%)
Язык : English
Default : Нет
Forced : Нет



Скриншоты:
[+] Всего файлов в раздаче - 1:
Пир 3 Счастливая кончина (Feast III The Happy Finish) 2009 DVDRip.mkv2.07 GB

Текущая раздача:
ДатаКомментарии    РазмерПиры
2018-06-04 U Пир 3: Счастливая кончина / Feast III: The Happy Finish (2009) DVDRip-AVC | L2, L1 2.07 GB ↑ 48 ↓ 14

Показать еще раздачи по запросу счастливая:
2017-10-29 U Счастливая серая мышь (2017) HDTVRip 720p от MediaClub 2.34 GB ↑ 117 ↓ 34
2017-10-29 U Счастливая серая мышь (2017) WEB-DLRip от GeneralFilm 744.82 MB ↑ 99 ↓ 45
2017-10-29 U Счастливая серая мышь (2017) WEB-DLRip-AVC от Files-x 1.37 GB ↑ 79 ↓ 48
2017-08-28 U Счастливая жизнь Ксении [01-04 из 04] (2017) HDTVRip-AVC от Files-x 2.96 GB ↑ 59 ↓ 37
2017-08-27 U Счастливая жизнь Ксении [01-04 из 04] (2017) HDTVRip от Files-x 2.34 GB ↑ 246 ↓ 120
2017-08-27 U Счастливая жизнь Ксении [01-04 из 04] (2017) HDTVRip 720p от MediaClub 4.99 GB ↑ 57 ↓ 63
2017-08-27 U Счастливая жизнь Ксении [01-04 из 04] (2017) SATRip-AVC 2.28 GB ↑ 27 ↓ 41

Отзывы
Зарегистрируйтесь чтобы добавить комментарий.
Обратная связь
Copyleft ©