↑↓Torrent.by
Поиск
Логин: Регистрация
Пароль: Восстановить пароль
Загрузка...

Славные пташки / PLOEY. You Never Fly Alone (2018) WEB-DLRip | iTunes

Скачать slavnye-ptashki-ploey-you-never-fly-alone-2018-web-dlrip-itunes.torrent
U Магнитная ссылка Размер: 1.46 GB Раздают: 41 Качают: 38 Добавлен: 2018-06-05 11:24:15
Славные пташки / PLOEY. You Never Fly Alone (2018) WEB-DLRip | iTunes

Славные пташки / PLOEY. You Never Fly Alone

Страна: Исландия  Бельгия
Производство: Cyborn, GunHil
Год выпуска: 2018
Жанр:  мультфильм, приключения
Продолжительность: 01:22:34

Режиссер: Аудни Аусгейрссон
Автор сценария: Фридрик Эрлингссон

В ролях: Джэми Орам, Харриет Перринг, Иэн Стюарт Робертсон, Ричард Уиллс-Коттон, Торунн Эрна Клаузен, Томас Арнольд, Кайзер Ахтар, Дебби Чейзен

Описание: Приключения маленького птенца Рыжика и куропатки-отшельника Гайрона. Судьба сводит их вместе, когда Рыжик, отстав от стаи, не смог улететь на юг. Рыжик уговаривает чудаковатого и вечно брюзжащего Гайрона показать ему дорогу в Райскую долину — тайное место в горах, где птицы могут переждать суровую зиму. Путь туда таит немало опасностей. Постепенно неунывающему Рыжику удаётся растопить сердце старого отшельника. Вместе эта парочка становится друг для друга настоящей семьёй, которой по силам свернуть горы...

Перевод: Профессиональный (полное дублирование) | iTunes
Субтитры: нет

Качество: WEB-DLRip
Формат: АVI
Видео кодек: XviD
Аудио кодек: АС3
Видео: 720x304 (2.35:1), 24.000 fps, XviD build 73 ~2 130 kbps avg
Аудио: 48 kHz, AC3 Dolby Digital, 3/2 (L,C,R,l,r) + LFE ch, ~384 kbps

Дата премьеры (мир): 2 февраля 2018
Дата премьеры (РФ): 12 апреля 2018, «Наше Кино»

Семпл

Релиз от: порошков


[+] Media Info
General
Format                      : AVI
Format/Info                 : Audio Video Interleave
File size                   : 1.46 GiB
Duration                    : 1 h 22 min
Overall bit rate            : 2 523 kb/s
Writing application         : VirtualDubMod 1.5.10.3 | (build 2550/release)
Writing library             : VirtualDubMod build 2550/release

Video
ID                          : 0
Format                      : MPEG-4 Visual
Format profile              : Advanced Simple@L5
Format settings             : BVOP1 / Custom Matrix
Format settings, BVOP       : 1
Format settings, QPel       : No
Format settings, GMC        : No warppoints
Format settings, Matrix     : Custom
Codec ID                    : XVID
Codec ID/Hint               : XviD
Duration                    : 1 h 22 min
Bit rate                    : 2 130 kb/s
Width                       : 720 pixels
Height                      : 304 pixels
Display aspect ratio        : 2.35:1
Frame rate                  : 24.000 FPS
Color space                 : YUV
Chroma subsampling          : 4:2:0
Bit depth                   : 8 bits
Scan type                   : Progressive
Compression mode            : Lossy
Bits/(Pixel*Frame)          : 0.405
Stream size                 : 1.23 GiB (84%)
Writing library             : XviD 73

Audio
ID                          : 1
Format                      : AC-3
Format/Info                 : Audio Coding 3
Codec ID                    : 2000
Duration                    : 1 h 22 min
Bit rate mode               : Constant
Bit rate                    : 384 kb/s
Channel(s)                  : 6 channels
Channel positions           : Front: L C R, Side: L R, LFE
Sampling rate               : 48.0 kHz
Frame rate                  : 31.250 FPS (1536 SPF)
Bit depth                   : 16 bits
Compression mode            : Lossy
Stream size                 : 227 MiB (15%)
Alignment                   : Split accross interleaves
Interleave, duration        : 42  ms (1.00 video frame)
Interleave, preload duratio : 500  ms
Service kind                : Complete Main



Скриншоты:
[+] Всего файлов в раздаче - 1:
Славные пташки_2017_WEB-DLRip.avi1.46 GB

Текущая раздача:
ДатаКомментарии    РазмерПиры
2018-06-05 U Славные пташки / PLOEY. You Never Fly Alone (2018) WEB-DLRip | iTunes 1.46 GB ↑ 41 ↓ 38

Показать еще раздачи по запросу славные:
2018-06-05 U Славные пташки / PLOEY. You Never Fly Alone (2018) WEB-DLRip | iTunes 700.02 MB ↑ 42 ↓ 27
2018-06-05 U Славные пташки / PLOEY. You Never Fly Alone (2018) WEB-DLRip-AVC от ExKinoRay | iTunes 1.36 GB ↑ 35 ↓ 35
2018-06-04 U Славные пташки / PLOEY. You Never Fly Alone (2018) WEB-DL 1080р | iTunes 2.83 GB ↑ 440 ↓ 361
2017-07-15 U Славные парни / The Nice Guys (2016) HDRip от Scarabey | Лицензия 1.45 GB ↑ 65 ↓ 17
2017-02-11 U Славные парни / The Nice Guys (2016) BDRip-AVC от HELLYWOOD | Лицензия 1.46 GB ↑ 226 ↓ 67
2017-01-25 U Славные парни / The Nice Guys (2016) BDRip от HQ-ViDEO | Лицензия 2.18 GB ↑ 170 ↓ 46
2016-10-02 U Славные парни / The Nice Guys (2016) BDRip от ExKinoRay | Лицензия 1.46 GB ↑ 457 ↓ 91

Отзывы
Зарегистрируйтесь чтобы добавить комментарий.
Обратная связь
Copyleft ©