↑↓Torrent.by
Поиск
Логин: Регистрация
Пароль: Восстановить пароль
Загрузка...

Простоквашино: Сезон дождей [03] (2018) WEB-DL 1080р

Скачать prostokvashino-sezon-dozhdey-03-2018-web-dl-1080r.torrent
U Магнитная ссылка Размер: 243.09 MB Раздают: 586 Качают: 110 Добавлен: 2018-06-06 15:02:34
Простоквашино: Сезон дождей [03] (2018) WEB-DL 1080р

Название: Простоквашино: Сезон дождей
Год выхода: 2018
Жанр: Мультфильм, семейный

Режиссер: Михаил Солошенко

Роли озвучивали: Антон Табаков, Юлия Меньшова, Иван Охлобыстин, Гарик Сукачёв, Алексей Онежен

О мультфильме: Казалось, никакие бури внешнего мира не смогут поколебать привычный и размеренный ход деревенской жизни Простоквашино. Время как будто застыло. Все так же каждое утро Матроскин дегустирует свежее молоко, полученное от своей любимицы — коровы Мурки. Все так же Шарик проводит время в окрестных лесах, «фотоохотясь» на редкую дичь. Правда, теперь он научился выкладывать фотографии своей добычи в интернет. И все так же, при каждой возможности, их навещает Дядя Федор. И тогда они весело и дружно проводят время своей мужской компанией. И когда им уже стало казаться, что так будет всегда, внезапно все изменилось с появлением одной маленькой девочки, родной сестры Дяди Фёдора. И имя этой девочки — Вера Павловна.

Производство: Россия / Союзмультфильм
Продолжительность: 00:06:29
Перевод: Не требуется
Субтитры: Отсутствуют

Файл
Формат: MKV
Качество: WEB-DL 1080р

Видео: MPEG-4 AVC, 5036 Кбит/с, 1920x1080
Аудио: 48 kHz, AC3 Dolby Digital, 2/0 (L,R) ch, ~192 kbps


[+] MediaInfo
Общее
Уникальный идентификатор                 : 108648647852282464286894528482031511286 (0x51BCF7EB21F53418ED9473D1FAAD26F6)
Полное имя                               : Простоквашино “Сезон дождей“ - 3 серия.mkv
Формат                                   : Matroska
Версия формата                           : Version 4 / Version 2
Размер файла                             : 243 Мбайт
Продолжительность                        : 6 м. 29 с.
Общий поток                              : 5229 Кбит/сек
Дата кодирования                         : UTC 2018-06-06 09:01:54
Программа кодирования                    : mkvmerge v23.0.0 ('The Bride Said No') 64-bit
Библиотека кодирования                   : libebml v1.3.6 + libmatroska v1.4.9

Видео
Идентификатор                            : 1
Формат                                   : AVC
Формат/Информация                        : Advanced Video Codec
Профиль формата                          : Main@L5.1
Настройки формата                        : CABAC / 1 Ref Frames
Параметр CABAC формата                   : Да
Параметр RefFrames формата               : 1 кадр
Идентификатор кодека                     : V_MPEG4/ISO/AVC
Продолжительность                        : 6 м. 29 с.
Битрейт                                  : 5036 Кбит/сек
Ширина                                   : 1920 пикселей
Высота                                   : 1080 пикселей
Соотношение сторон                       : 16:9
Режим частоты кадров                     : Постоянный
Частота кадров                           : 25,000 кадров/сек
Цветовое пространство                    : YUV
Субдискретизация насыщенности            : 4:2:0
Битовая глубина                          : 8 бит
Тип развёртки                            : Прогрессивная
Бит/(Пиксели*Кадры)                      : 0.097
Размер потока                            : 234 Мбайт (96%)
Default                                  : Да
Forced                                   : Нет

Аудио
Идентификатор                            : 2
Формат                                   : AC-3
Формат/Информация                        : Audio Coding 3
Идентификатор кодека                     : A_AC3
Продолжительность                        : 6 м. 29 с.
Вид битрейта                             : Постоянный
Битрейт                                  : 192 Кбит/сек
Каналы                                   : 2 канала
Расположение каналов                     : Front: L R
Частота                                  : 48,0 КГц
Частота кадров                           : 31,250 кадров/сек (1536 SPF)
Битовая глубина                          : 16 бит
Метод сжатия                             : С потерями
Размер потока                            : 8,93 Мбайт (4%)
Default                                  : Да
Forced                                   : Нет



Скриншоты:
[+] Всего файлов в раздаче - 1:
Простоквашино “Сезон дождей“ - 3 серия.mkv243.09 MB

Текущая раздача:
ДатаКомментарии    РазмерПиры
2018-06-06 U Простоквашино: Сезон дождей [03] (2018) WEB-DL 1080р 243.09 MB ↑ 586 ↓ 110

Показать еще раздачи по запросу простоквашино:
2018-12-26 U Простоквашино [01x01-10 из 30] (2018) WEB-DLRip от GeneralFilm 822.91 MB ↑ 41 ↓ 58
2018-12-25 U Простоквашино [01x01-10 из 30] (2018) WEB-DLRip 1080p 1.92 GB ↑ 72 ↓ 81
2018-12-25 U Простоквашино [01x01-10 из 30] (2018) WEB-DLRip 720p 1К1.24 GB ↑ 48 ↓ 78
2018-12-11 U Простоквашино [01x01-09 из 30] (2018) WEB-DLRip 720p 1.10 GB ↑ 105 ↓ 106
2018-12-11 U Простоквашино [01x01-09 из 30] (2018) WEB-DLRip-AVC от OlLanDGroup 918.70 MB ↑ 117 ↓ 15
2018-12-10 U Простоквашино [01x01-09 из 30] (2018) WEB-DLRip от GeneralFilm 735.12 MB ↑ 99 ↓ 122
2018-11-12 U Простоквашино [01x01-08 из 30] (2018) WEB-DLRip 795.82 MB ↑ 158 ↓ 137

Отзывы
Зарегистрируйтесь чтобы добавить комментарий.
Обратная связь
Copyleft ©