↑↓Torrent.by
Поиск
Логин: Регистрация
Пароль: Восстановить пароль
Загрузка...

Импульс / Impulse [01x01-04 из 10] (2018) WEBRip | OMSKBIRD

Скачать impuls-impulse-01x01-04-iz-10-2018-webrip-omskbird.torrent
U Магнитная ссылка Размер: 2.50 GB Раздают: 77 Качают: 12 Добавлен: 2018-06-08 22:13:20
Импульс / Impulse [01x01-04 из 10] (2018) WEBRip | OMSKBIRD

Название: Импульс
Оригинальное название: Impulse
Год выхода: 2018
Жанр: фантастика, боевик
Режиссер: Шерин Дабис, Эд Фрэйман
В ролях: Крэйг Арнольд, Сара Дежарден, Мэдди Хассон, Тэннер Стайн, Дэниэл Маслани, Каллум Кит Ренни и др.

О фильме:
16-летняя девушка Генри Коул открывает в себе способность к телепортации, которая не поддается ее контролю.
Действие сериала разворачивается в том же мире, что и события фильма "Телепорт" 2008 года.

 
Страна: США
Продолжительность: ~ 44 мин. серия
Перевод: Любительский (многоголосый закадровый) | OMSKBIRD

Файл
Кодек: Xvid
Качество: WEBRip  
Видео: AVI, 720x400 (16:9), 23.976 fps, ~ 1800 kbps
Звук: Аудио rus: AC-3, 48 KHz, 2 ch, 192 kbps | OMSKBIRD records

Семпл

Присутствует реклама!


[+] Mediainfo:

General
Complete name               : H:Мои ДокументыВидеоРАЗДАЧИИМПУЛЬСImpulse S01 WEBRip (OMSKBIRD)Impulse S01E01 WEBRip (OMSKBIRD).avi
Format                      : AVI
Format/Info                 : Audio Video Interleave
File size                   : 678 MiB
Duration                    : 47 min 54 s
Overall bit rate            : 1 980 kb/s
Writing application         : VirtualDubMod 1.5.10.3 | www.virtualdub-fr.org || (build 2550/release)
Writing library             : VirtualDubMod build 2550/release

Video
ID                          : 0
Format                      : MPEG-4 Visual
Format profile              : Advanced Simple@L5
Format settings, BVOP       : 1
Format settings, QPel       : No
Format settings, GMC        : No warppoints
Format settings, Matrix     : Default (H.263)
Codec ID                    : XVID
Codec ID/Hint               : XviD
Duration                    : 47 min 54 s
Bit rate                    : 1 778 kb/s
Width                       : 720 pixels
Height                      : 400 pixels
Display aspect ratio        : 16:9
Frame rate                  : 23.976 (24000/1001) FPS
Color space                 : YUV
Chroma subsampling          : 4:2:0
Bit depth                   : 8 bits
Scan type                   : Progressive
Compression mode            : Lossy
Bits/(Pixel*Frame)          : 0.258
Stream size                 : 609 MiB (90%)
Writing library             : XviD 67

Audio
ID                          : 1
Format                      : AC-3
Format/Info                 : Audio Coding 3
Format settings, Endianness : Big
Codec ID                    : 2000
Duration                    : 47 min 54 s
Bit rate mode               : Constant
Bit rate                    : 192 kb/s
Channel(s)                  : 2 channels
Channel positions           : Front: L R
Sampling rate               : 48.0 kHz
Frame rate                  : 31.250 FPS (1536 SPF)
Bit depth                   : 16 bits
Compression mode            : Lossy
Stream size                 : 65.8 MiB (10%)
Alignment                   : Split accross interleaves
Interleave, duration        : 42  ms (1.00 video frame)
Interleave, preload duratio : 500  ms
Service kind                : Complete Main




Скриншоты:
[+] Всего файлов в раздаче - 4:
Impulse S01E01 WEBRip (OMSKBIRD).avi678.36 MB
Impulse S01E02 WEBRip (OMSKBIRD).avi614.06 MB
Impulse S01E03 WEBRip (OMSKBIRD).avi626.62 MB
Impulse S01E04 WEBRip (OMSKBIRD).avi644.59 MB

Текущая раздача:
ДатаКомментарии    РазмерПиры
2018-06-08 U Импульс / Impulse [01x01-04 из 10] (2018) WEBRip | OMSKBIRD 2.50 GB ↑ 77 ↓ 12

Показать еще раздачи по запросу импульс:
2018-06-12 U Импульс / Impulse [S01] (2018) WEBRip | IdeaFilm 6.83 GB ↑ 58 ↓ 73
2018-06-11 U Импульс / Impulse [S01] (2018) WEBRip 720p | OMSKBIRD 10.78 GB ↑ 87 ↓ 80
2018-06-11 U Импульс / Impulse [S01] (2018) WEBRip | OMSKBIRD 6.23 GB ↑ 41 ↓ 46
2018-06-08 U Импульс / Impulse [S01] (2018) WEBRip 720p | ColdFilm 7.26 GB ↑ 60 ↓ 50
2018-06-08 U Импульс / Impulse [01x01-04 из 10] (2018) WEBRip 720p | OMSKBIRD 4.32 GB ↑ 85 ↓ 23
2018-06-08 U Импульс / Impulse [01x01-02 из 10] (2018) WEBRip 720p | OMSKBIRD 2.11 GB ↑ 39 ↓ 6
2018-06-08 U Импульс / Impulse [01x01-02 из 10] (2018) WEBRip | OMSKBIRD 1.26 GB ↑ 53 ↓ 7

Отзывы
Зарегистрируйтесь чтобы добавить комментарий.
Обратная связь
Copyleft ©