↑↓Torrent.by
Поиск
Логин: Регистрация
Пароль: Восстановить пароль
Загрузка...

Уральские пельмени - Азбука Уральских Пельменей - Б (2018) WEBRip 1080p

Скачать uralskie-pelmeni-azbuka-uralskih-pelmeney-b-2018-webrip-1080p.torrent
U Магнитная ссылка Размер: 2.07 GB Раздают: 561 Качают: 198 Добавлен: 2018-06-09 09:42:01
Уральские пельмени - Азбука Уральских Пельменей - Б (2018) WEBRip 1080p

Название: Уральские пельмени - Азбука Уральских Пельменей - Б
Год выхода: 2018
Жанр: ТВ-шоу, юмор, сатира, развлекательный
Режиссер: Анастастия Ширина, Леонид Коновалов
В ролях: Дмитрий Брекоткин, Сергей Ершов, Сергей Исаев, Сергей Калугин, Вячеслав Мясников, Александр Попов, Андрей Рожков, Дмитрий Соколов (V), Максим Ярица, Юлия Михалкова, Стефания-Марьяна Гурская, Илана Юрьева, Ксения Корнева

О фильме:
Шоу Уральских пельмений обожают и любят фанаты. Многие из них знают все шутки ребят от А до Я. Но они знают лишь те шутки, которые уже показывали по ТВ. Но сегодня мы представляем новый сборник миниатюр и скетчей. А еще в сборнике то, что осталось за кадром! Цикл выпусков с невошедшими миниатюрами и скетчами. А также самые смешные ляпы и оговорки!

Страна: Россия
Продолжительность: 01:11:40

Файл
Кодек: MPEG-4 AVC
Качество: WEBRip 1080p
Видео: 1920x1080, 4030 Кбит/с, 25 fps
Звук: AAC-LC, 2 ch, 96 kb/s

Релиз от: music80
[+] MediaInfo:
General
Complete name                  : F:_NetworkVideoУральские пельмени - Азбука Уральских Пельменей - Б (2018).mp4
Format                         : MPEG-4
Format profile                 : Base Media
Codec ID                       : isom (isom/iso2/avc1/mp41)
File size                      : 2.07 GiB
Duration                       : 1 h 11 min
Overall bit rate               : 4 130 kb/s
Writing application            : Lavf56.40.101

Video
ID                             : 1
Format                         : AVC
Format/Info                    : Advanced Video Codec
Format profile                 : High@L4
Format settings                : CABAC / 2 Ref Frames
Format settings, CABAC         : Yes
Format settings, ReFrames      : 2 frames
Codec ID                       : avc1
Codec ID/Info                  : Advanced Video Coding
Duration                       : 1 h 11 min
Duration_FirstFrame            : -40 ms
Bit rate                       : 4 030 kb/s
Width                          : 1 920 pixels
Height                         : 1 080 pixels
Display aspect ratio           : 16:9
Frame rate mode                : Variable
Frame rate                     : 25.000 FPS
Minimum frame rate             : 25.000 FPS
Maximum frame rate             : 25.014 FPS
Color space                    : YUV
Chroma subsampling             : 4:2:0
Bit depth                      : 8 bits
Scan type                      : Progressive
Bits/(Pixel*Frame)             : 0.078
Stream size                    : 2.02 GiB (98%)
Color range                    : Limited
Color primaries                : BT.709
Transfer characteristics       : BT.709
Matrix coefficients            : BT.709

Audio
ID                             : 2
Format                         : AAC
Format/Info                    : Advanced Audio Codec
Format profile                 : LC
Codec ID                       : mp4a-40-2
Duration                       : 1 h 11 min
Bit rate mode                  : Constant
Bit rate                       : 93.6 kb/s
Channel(s)                     : 2 channels
Channel(s)_Original            : 1 channel
Channel positions              : Front: C
Sampling rate                  : 44.1 kHz
Frame rate                     : 43.066 FPS (1024 SPF)
Compression mode               : Lossy
Stream size                    : 48.0 MiB (2%)
Default                        : Yes
Alternate group                : 1



Скриншоты:
[+] Всего файлов в раздаче - 1:
Уральские пельмени - Азбука Уральских Пельменей - Б (2018).mp42.07 GB

Показать еще раздачи по запросу уральские:
2019-04-13 U Уральские Пельмени - Шубный приговор [эфир от 12.04] (2019) WEBRip 720p 1.19 GB ↑ 190 ↓ 73
2019-04-13 U Уральские пельмени - Шубный Приговор [эфир от 12.04] (2019) WEBRip от Portablius 1,012.40 MB ↑ 404 ↓ 123
2019-04-08 U Уральские Пельмени - Муж на Щас [эфир от 05.04] (2019) WEBRip 1080p 2.48 GB ↑ 119 ↓ 46
2019-04-06 U Уральские пельмени - Муж на Щас [эфир от 05.04] (2019) WEBRip от Portablius 1,002.57 MB ↑ 840 ↓ 144
2019-03-19 U Уральские пельмени - Азбука Уральских пельменей - З [эфир от 01.03] (2019) WEBRip 891.38 MB ↑ 232 ↓ 27
2019-03-02 U Уральские пельмени - Азбука Уральских пельменей - З [эфир от 01.03] (2019) WEBRip 1080p 2.36 GB ↑ 167 ↓ 63
2019-02-24 U Уральские пельмени - Азбука Уральских пельменей - Ж [эфир от 22.02] (2019) WEBRip 720p 884.82 MB ↑ 676 ↓ 186

Отзывы
Зарегистрируйтесь чтобы добавить комментарий.
Обратная связь
Copyleft ©