↑↓Torrent.by
Поиск
Логин: Регистрация
Пароль: Восстановить пароль
Загрузка...

Страна призраков / Incident in a Ghost Land (2018) BDRip 720p | Лицензия

Скачать strana-prizrakov-incident-in-a-ghost-land-2018-bdrip-720p-licenziya.torrent
U Магнитная ссылка Размер: 5.28 GB Раздают: 190 Качают: 146 Добавлен: 2018-06-09 19:28:48
Страна призраков / Incident in a Ghost Land (2018) BDRip 720p | Лицензия

Название: Страна призраков
Оригинальное название: Incident in a Ghost Land
Год выхода: 2018
Жанр: Ужасы
Страна: Франция, Канада
Перевод: Дублированный | Лицензия
Продолжительность: 01:31:13
Режиссер: Паскаль Ложье
В ролях: Кристал Рид, Милен Фармер, Анастасия Филлипс, Эмилия Джонс, Тэйлор Хиксон, Кевин Пауэр, Роб Арчер, Мариам Бернштейн, Алисия Джонстон, Эрнесто Гриффит и др.

О фильме: Бэт возвращается в родные места, где много лет назад с её семьёй произошла страшная трагедия. В старом особняке её ждут мать и сестра, помешанная на призраках, чья одержимость злыми духами — не что иное, как отголосок ужасного инцидента, превратившего жизнь в параноидальный кошмар. В доме начинают происходить странные события, объяснить которые Бэт не в силах…

Файл
Качество: BDRip 720p
Видео: MPEG-4 AVC, 1280x536, 5500 kbps, 24,000 fps
Звук#1: русский, DTS 5.1, 48 kHz, 1509kbps
Звук#2: русский, AC3, 6 ch, 48 kHz, 640 kbps
Звук#3: английский, AC3, 6 ch, 48 kHz, 640 kbps
Субтитры: русские
[+] MI
Общее
Уникальный идентификатор                 : 245899242709361722694950623072598566677 (0xB8FE78B3265F7450B329A76096DF2715)
Полное имя                               : G:DelugeIncidentinaGhostLandBDRip720p.mkv
Формат                                   : Matroska
Версия формата                           : Version 4 / Version 2
Размер файла                             : 5,28 Гбайт
Продолжительность                        : 1 ч. 31 м.
Общий поток                              : 8291 Кбит/сек
Дата кодирования                         : UTC 2018-06-09 09:46:08
Программа кодирования                    : mkvmerge v9.5.0 ('Quiet Fire') 64bit
Библиотека кодирования                   : libebml v1.3.4 + libmatroska v1.4.5

Видео
Идентификатор                            : 1
Формат                                   : AVC
Формат/Информация                        : Advanced Video Codec
Профиль формата                          : High@L4.1
Настройки формата                        : CABAC / 9 Ref Frames
Параметр CABAC формата                   : Да
Параметр RefFrames формата               : 9 кадров
Идентификатор кодека                     : V_MPEG4/ISO/AVC
Продолжительность                        : 1 ч. 31 м.
Битрейт                                  : 5500 Кбит/сек
Ширина                                   : 1280 пикселей
Высота                                   : 536 пикселей
Соотношение сторон                       : 2,40:1
Режим частоты кадров                     : Постоянный
Частота кадров                           : 24,000 кадра/сек
Цветовое пространство                    : YUV
Субдискретизация насыщенности            : 4:2:0
Битовая глубина                          : 8 бит
Тип развёртки                            : Прогрессивная
Бит/(Пиксели*Кадры)                      : 0.334
Размер потока                            : 3,50 Гбайт (66%)
Библиотека кодирования                   : x264 core 142 r2479 dd79a61
Настройки программы                      : cabac=1 / ref=9 / deblock=1:-3:-3 / analyse=0x3:0x133 / me=umh / subme=11 / psy=1 / psy_rd=1.00:0.00 / mixed_ref=1 / me_range=48 / chroma_me=1 / trellis=2 / 8x8dct=1 / cqm=0 / deadzone=21,11 / fast_pskip=1 / chroma_qp_offset=-2 / threads=6 / lookahead_threads=1 / sliced_threads=0 / nr=0 / decimate=1 / interlaced=0 / bluray_compat=0 / constrained_intra=0 / bframes=10 / b_pyramid=2 / b_adapt=2 / b_bias=0 / direct=3 / weightb=1 / open_gop=0 / weightp=0 / keyint=240 / keyint_min=24 / scenecut=40 / intra_refresh=0 / rc_lookahead=50 / rc=2pass / mbtree=1 / bitrate=5500 / ratetol=1.0 / qcomp=0.60 / qpmin=0 / qpmax=69 / qpstep=4 / cplxblur=20.0 / qblur=0.5 / vbv_maxrate=62500 / vbv_bufsize=78125 / nal_hrd=none / filler=0 / ip_ratio=1.40 / aq=1:1.00
Default                                  : Да
Forced                                   : Нет
Цветовой диапазон                        : Limited
Основные цвета                           : BT.709
Характеристики трансфера                 : BT.709
Коэффициенты матрицы                     : BT.709

Аудио #1
Идентификатор                            : 2
Формат                                   : DTS
Формат/Информация                        : Digital Theater Systems
Идентификатор кодека                     : A_DTS
Продолжительность                        : 1 ч. 31 м.
Вид битрейта                             : Постоянный
Битрейт                                  : 1509 Кбит/сек
Каналы                                   : 6 каналов
Расположение каналов                     : Front: L C R, Side: L R, LFE
Частота                                  : 48,0 КГц
Частота кадров                           : 93,750 кадра/сек (512 SPF)
Битовая глубина                          : 24 бит
Метод сжатия                             : С потерями
Размер потока                            : 985 Мбайт (18%)
Язык                                     : Russian
Default                                  : Да
Forced                                   : Нет

Аудио #2
Идентификатор                            : 3
Формат                                   : AC-3
Формат/Информация                        : Audio Coding 3
Идентификатор кодека                     : A_AC3
Продолжительность                        : 1 ч. 31 м.
Вид битрейта                             : Постоянный
Битрейт                                  : 640 Кбит/сек
Каналы                                   : 6 каналов
Расположение каналов                     : Front: L C R, Side: L R, LFE
Частота                                  : 48,0 КГц
Частота кадров                           : 31,250 кадров/сек (1536 SPF)
Битовая глубина                          : 16 бит
Метод сжатия                             : С потерями
Размер потока                            : 418 Мбайт (8%)
Язык                                     : Russian
Default                                  : Нет
Forced                                   : Нет

Аудио #3
Идентификатор                            : 4
Формат                                   : AC-3
Формат/Информация                        : Audio Coding 3
Идентификатор кодека                     : A_AC3
Продолжительность                        : 1 ч. 31 м.
Вид битрейта                             : Постоянный
Битрейт                                  : 640 Кбит/сек
Каналы                                   : 6 каналов
Расположение каналов                     : Front: L C R, Side: L R, LFE
Частота                                  : 48,0 КГц
Частота кадров                           : 31,250 кадров/сек (1536 SPF)
Битовая глубина                          : 16 бит
Метод сжатия                             : С потерями
Размер потока                            : 418 Мбайт (8%)
Язык                                     : English
Default                                  : Нет
Forced                                   : Нет

Текст
Идентификатор                            : 5
Формат                                   : PGS
Режим смешивания                         : zlib
Идентификатор кодека                     : S_HDMV/PGS
Идентификатор кодека/Информация          : Picture based subtitle format used on BDs/HD-DVDs
Продолжительность                        : 1 ч. 24 м.
Битрейт                                  : 2791 бит/сек
ElementCount                             : 1322
Размер потока                            : 1,69 Мбайт (0%)
Заголовок                                : PGS
Язык                                     : Russian
Default                                  : Да
Forced                                   : Нет

Меню
00:00:00.000                             : en:Chapter 01
00:01:29.750                             : en:Chapter 02
00:10:57.375                             : en:Chapter 03
00:19:48.583                             : en:Chapter 04
00:29:28.708                             : en:Chapter 05
00:41:00.833                             : en:Chapter 06
00:51:49.750                             : en:Chapter 07
01:03:50.250                             : en:Chapter 08
01:16:10.666                             : en:Chapter 09




Скриншоты:
[+] Всего файлов в раздаче - 1:
IncidentinaGhostLandBDRip720p.mkv5.28 GB

Текущая раздача:
ДатаКомментарии    РазмерПиры
2018-06-09 U Страна призраков / Incident in a Ghost Land (2018) BDRip 720p | Лицензия 5.28 GB ↑ 190 ↓ 146

Показать еще раздачи по запросу страна:
2018-06-11 U Страна призраков / Incident in a Ghost Land (2018) HDRip от MegaPeer | Лицензия 744.92 MB ↑ 42 ↓ 10
2018-06-10 U Страна призраков / Incident in a Ghost Land (2018) HDRip от MegaPeer | Лицензия 1.46 GB ↑ 122 ↓ 71
2018-06-09 U Страна призраков / Incident in a Ghost Land (2018) BDRip 1080p | Лицензия 8.47 GB ↑ 235 ↓ 178
2018-05-26 U Страна синоби / Shinobi no kuni (2017) HDRip | GreenРай Studio 1.37 GB ↑ 67 ↓ 21
2018-04-12 U Страна призраков / Ghostland (2018) WEB-DLRip от Scarabey | iTunes 741.89 MB ↑ 70 ↓ 17
2018-04-11 U Страна призраков / Ghostland (2018) WEB-DLRip от Scarabey | iTunes 1.44 GB ↑ 94 ↓ 32
2018-04-09 U Страна призраков / Ghostland (2018) WEB-DLRip-AVC от OlLanDGroup | iTunes 1.46 GB ↑ 197 ↓ 63

Отзывы
Зарегистрируйтесь чтобы добавить комментарий.
Обратная связь
Copyleft ©