↑↓Torrent.by
Поиск
Логин: Регистрация
Пароль: Восстановить пароль
Загрузка...

Полночное солнце / Midnight Sun (2018) BDRip 1080p | iTunes

Скачать polnochnoe-solnce-midnight-sun-2018-bdrip-1080p-itunes.torrent
U Магнитная ссылка Размер: 6.80 GB Раздают: 102 Качают: 69 Добавлен: 2018-06-09 19:30:02
Полночное солнце / Midnight Sun (2018) BDRip 1080p | iTunes

Название: Полночное солнце
Оригинальное название: Midnight Sun
Год выпуска: 2018
Жанр:  Драма, мелодрама
Режиссер: Скотт Спир
В ролях: Белла Торн, Патрик Шварценеггер, Роб Риггл, Куинн Шепард, Кен Тремблетт, Джен Гриффин, Николас Кумбе, Тиера Сковбай, Пол МакДжиллион, Остин Обиаджунва

О фильме:
Ночами 17-летняя Кэти сочиняет свои красивые песни под гитару, а днем вынуждена скрываться во мраке: её нежная кожа не выносит солнечного света. Но однажды в полночь она знакомится с Чарли, веселым парнем с копной рыжих, как солнце, волос и очаровательной улыбкой. Внезапная и страстная любовь яркой вспышкой озаряет жизнь больной девушки. И теперь ради возлюбленного она готова сгореть в лучах света безумного чувства...

Страна: США
Студия: Boies/Schiller Film Group, Мосфильм-Мастер
Продолжительность: 01:31:52
Перевод: Дублированный | iTunes

Файл
Качество: BDRip 1080p
Формат: mkv
Видео кодек: AVC
Аудио кодек: AC3, DTS
Видео: 1920x800, 23.976 fps, 8709 Кбит/с
Аудио #1: AC3, 384 kb/s, 6 ch, 48.0 KHz [Russian]
Аудио #2: DTS, 1509 kb/s, 6 ch, 48.0 KHz [English]
Субтитры: Нет


[+] M/I
Общее
Уникальный идентификатор                 : 116000142121531489737328333421613362258 (0x5744D091EA86AF5841591C8B24AB2C52)
Полное имя                               : E:новые фильмы 52Midnight.Sun.2018.BDRip 1080p.mkv
Формат                                   : Matroska
Версия формата                           : Version 4 / Version 2
Размер файла                             : 6,80 Гбайт
Продолжительность                        : 1 ч. 31 м.
Общий поток                              : 10,6 Мбит/сек
Название фильма                          : Midnight.Sun.2018.BDRip 1080p
Дата кодирования                         : UTC 2018-06-07 07:47:06
Программа кодирования                    : mkvmerge v22.0.0 ('At The End Of The World') 64-bit
Библиотека кодирования                   : libebml v1.3.5 + libmatroska v1.4.8
DURATION                                 : 01:31:52.672000000
NUMBER_OF_FRAMES                         : 172271
NUMBER_OF_BYTES                          : 264608256
_STATISTICS_WRITING_APP                  : mkvmerge v22.0.0 ('At The End Of The World') 64-bit
_STATISTICS_WRITING_DATE_UTC             : 2018-06-07 07:47:06
_STATISTICS_TAGS                         : BPS DURATION NUMBER_OF_FRAMES NUMBER_OF_BYTES

Видео
Идентификатор                            : 1
Формат                                   : AVC
Формат/Информация                        : Advanced Video Codec
Профиль формата                          : High@L4.1
Параметр CABAC формата                   : Да
Параметр ReFrames формата                : 5 кадров
Идентификатор кодека                     : V_MPEG4/ISO/AVC
Продолжительность                        : 1 ч. 31 м.
Битрейт                                  : 8709 Кбит/сек
Ширина                                   : 1920 пикселей
Высота                                   : 800 пикселей
Соотношение сторон                       : 2,40:1
Режим частоты кадров                     : Постоянный
Частота кадров                           : 23,976 кадра/сек
Цветовое пространство                    : YUV
Субдискретизация насыщенности            : 4:2:0
Битовая глубина                          : 8 бит
Тип развёртки                            : Прогрессивная
Бит/(Пиксели*Кадры)                      : 0.236
Размер потока                            : 5,45 Гбайт (80%)
Заголовок                                : Midnight.Sun.2018.BDRip 1080p
Библиотека кодирования                   : x264 core 155 r2901 7d0ff22
Настройки программы                      : cabac=1 / ref=5 / deblock=1:0:0 / analyse=0x3:0x133 / me=umh / subme=7 / psy=1 / psy_rd=1.00:0.00 / mixed_ref=1 / me_range=16 / chroma_me=1 / trellis=1 / 8x8dct=1 / cqm=0 / deadzone=21,11 / fast_pskip=0 / chroma_qp_offset=-2 / threads=25 / lookahead_threads=4 / sliced_threads=0 / nr=0 / decimate=1 / interlaced=0 / bluray_compat=0 / constrained_intra=0 / bframes=3 / b_pyramid=2 / b_adapt=1 / b_bias=0 / direct=1 / weightb=1 / open_gop=0 / weightp=2 / keyint=250 / keyint_min=23 / scenecut=40 / intra_refresh=0 / rc_lookahead=40 / rc=2pass / mbtree=1 / bitrate=8709 / ratetol=1.0 / qcomp=0.60 / qpmin=0 / qpmax=69 / qpstep=4 / cplxblur=20.0 / qblur=0.5 / ip_ratio=1.40 / aq=1:1.00
Язык                                     : English
Default                                  : Да
Forced                                   : Нет
DURATION                                 : 01:31:52.683000000
NUMBER_OF_FRAMES                         : 132172
NUMBER_OF_BYTES                          : 5999242816
_STATISTICS_WRITING_APP                  : mkvmerge v22.0.0 ('At The End Of The World') 64-bit
_STATISTICS_WRITING_DATE_UTC             : 2018-06-07 07:47:06
_STATISTICS_TAGS                         : BPS DURATION NUMBER_OF_FRAMES NUMBER_OF_BYTES

Аудио #1
Идентификатор                            : 2
Формат                                   : AC-3
Формат/Информация                        : Audio Coding 3
Расширение режима                        : CM (complete main)
Параметр Endianness формата              : Big
Идентификатор кодека                     : A_AC3
Продолжительность                        : 1 ч. 31 м.
Вид битрейта                             : Постоянный
Битрейт                                  : 384 Кбит/сек
Каналы                                   : 6 каналов
Расположение каналов                     : Front: L C R, Side: L R, LFE
Частота                                  : 48,0 КГц
Битовая глубина                          : 16 бит
Метод сжатия                             : С потерями
Размер потока                            : 252 Мбайт (4%)
Заголовок                                : Дублированный | iTunes
Язык                                     : Russian
Default                                  : Да
Forced                                   : Да

Аудио #2
Идентификатор                            : 3
Формат                                   : DTS
Формат/Информация                        : Digital Theater Systems
Режим                                    : 16
Параметр Endianness формата              : Big
Идентификатор кодека                     : A_DTS
Продолжительность                        : 1 ч. 31 м.
Вид битрейта                             : Постоянный
Битрейт                                  : 1509 Кбит/сек
Каналы                                   : 6 каналов
Расположение каналов                     : Front: L C R, Side: L R, LFE
Частота                                  : 48,0 КГц
Битовая глубина                          : 24 бит
Метод сжатия                             : С потерями
Размер потока                            : 992 Мбайт (14%)
Заголовок                                : Original (Eng)
Язык                                     : English
Default                                  : Нет
Forced                                   : Нет

Меню
00:00:00.000                             : en:00:00:00.000
00:04:00.991                             : en:00:04:00.991
00:09:32.113                             : en:00:09:32.113
00:14:23.988                             : en:00:14:23.988
00:20:52.585                             : en:00:20:52.585
00:24:16.205                             : en:00:24:16.205
00:30:14.187                             : en:00:30:14.187
00:34:13.760                             : en:00:34:13.760
00:37:46.806                             : en:00:37:46.806
00:42:48.357                             : en:00:42:48.357
00:47:28.095                             : en:00:47:28.095
00:53:23.450                             : en:00:53:23.450
00:57:34.242                             : en:00:57:34.242
01:01:31.813                             : en:01:01:31.813
01:04:15.393                             : en:01:04:15.393
01:07:27.210                             : en:01:07:27.210
01:10:06.077                             : en:01:10:06.077
01:15:36.866                             : en:01:15:36.866
01:19:39.775                             : en:01:19:39.775
01:26:21.176                             : en:01:26:21.176



Скриншоты:
[+] Всего файлов в раздаче - 1:
Midnight.Sun.2018.BDRip 1080p.mkv6.80 GB

Текущая раздача:
ДатаКомментарии    РазмерПиры
2018-06-09 U Полночное солнце / Midnight Sun (2018) BDRip 1080p | iTunes 6.80 GB ↑ 102 ↓ 69

Похожие раздачи по запросу - полночное:
2018-06-13 U Полночное солнце / Midnight Sun (2018) BDRip от MegaPeer | iTunes 1.42 GB ↑ 236 ↓ 16
2018-06-12 U Полночное солнце / Midnight Sun (2018) BDRip 720p | iTunes 3.57 GB ↑ 44 ↓ 19
2018-06-10 U Полночное солнце / Midnight Sun (2018) HDRip от Scarabey | iTunes 1.40 GB ↑ 55 ↓ 15
2018-06-09 U Полночное солнце / Midnight Sun (2018) BDRip 720p от MIXTV | iTunes 1.89 GB ↑ 93 ↓ 28
2018-06-07 U Полночное солнце / Midnight Sun (2018) HDRip от MegaPeer | iTunes 1.46 GB ↑ 49 ↓ 34

Отзывы
Зарегистрируйтесь чтобы добавить комментарий.
Обратная связь
Copyleft ©