↑↓Torrent.by
Поиск
Логин: Регистрация
Пароль: Восстановить пароль
Загрузка...

Полночное солнце / Midnight Sun (2018) BDRip 720p от MIXTV | iTunes

Скачать polnochnoe-solnce-midnight-sun-2018-bdrip-720p-ot-mixtv-itunes.torrent
U Магнитная ссылка Размер: 1.89 GB Раздают: 93 Качают: 28 Добавлен: 2018-06-09 19:30:10
Полночное солнце / Midnight Sun (2018) BDRip 720p от MIXTV | iTunes

Название: Полночное солнце
Оригинальное название: Midnight Sun
Год выхода: 2018
Жанр: Драма, мелодрама
Режиссер: Скотт Спир
В ролях: Белла Торн, Патрик Шварценеггер, Роб Риггл, Куинн Шепард, Кен Тремблетт, Джен Гриффин, Николас Кумбе, Тиера Сковбай, Пол МакДжиллион, Остин Обиаджунва

О фильме:
Ночами 17-летняя Кэти сочиняет красивые песни под гитару, а днем она вынуждена скрываться во мраке: её нежная кожа не выносит солнечного света. Но однажды в полночь Кэти знакомится с Чарли, веселым парнем с копной рыжих как солнце волос и очаровательной улыбкой. Внезапная и страстная любовь яркой вспышкой озаряет жизнь больной девушки. И теперь ради возлюбленного она готова сгореть в лучах света безумного чувства...

 
Страна: США
Студия: Boies/Schiller Film Group, Мосфильм-Мастер
Продолжительность: 01:31:52
Перевод: Дублированный (iTunes)

Файл
Формат:MKV
Кодек: h.264
Качество: BDRip 720p
Видео: 1280x534, 2300 Kbps, 23.976 fps
Звук:
Аудио #1: AC3, 2 ch, 320 Kbps (Русский)
Аудио #2: AC3, 2 ch, 320 Kbps (Английский)
Субтитры: Английские, Испанские, отключаемые (full)


[+] Mediainfo:
General
Unique ID                                : 275860279945904616985293527793525155800 (0xCF88C1E2713F13C20721F560898967D8)
Complete name                            : Midnight.Sun.2018.RU.EN.BDRip.720p.MIXTV.mkv
Format                                   : Matroska
Format version                           : Version 4 / Version 2
File size                                : 1.89 GiB
Duration                                 : 1 h 31 min
Overall bit rate                         : 2 941 kb/s
Movie name                               : Midnight.Sun.2018.RU.EN.BDRip.720p from MIXTV
Encoded date                             : UTC 2018-06-08 20:15:48
Writing application                      : mkvmerge v23.0.0 ('The Bride Said No') 64-bit
Writing library                          : libebml v1.3.6 + libmatroska v1.4.9

Video
ID                                       : 1
Format                                   : AVC
Format/Info                              : Advanced Video Codec
Format profile                           : High@L4.1
Format settings                          : CABAC / 9 Ref Frames
Format settings, CABAC                   : Yes
Format settings, RefFrames               : 9 frames
Codec ID                                 : V_MPEG4/ISO/AVC
Duration                                 : 1 h 31 min
Bit rate                                 : 2 300 kb/s
Width                                    : 1 280 pixels
Height                                   : 534 pixels
Display aspect ratio                     : 2.40:1
Frame rate mode                          : Constant
Frame rate                               : 23.976 (24000/1001) FPS
Color space                              : YUV
Chroma subsampling                       : 4:2:0
Bit depth                                : 8 bits
Scan type                                : Progressive
Bits/(Pixel*Frame)                       : 0.140
Stream size                              : 1.48 GiB (78%)
Title                                    : Midnight.Sun.2018
Writing library                          : x264 core 155 r2893 b00bcaf
Encoding settings                        : cabac=1 / ref=9 / deblock=1:-1:-1 / analyse=0x3:0x133 / me=umh / subme=9 / psy=1 / psy_rd=1.00:0.15 / mixed_ref=1 / me_range=24 / chroma_me=1 / trellis=2 / 8x8dct=1 / cqm=0 / deadzone=21,11 / fast_pskip=1 / chroma_qp_offset=-3 / threads=6 / lookahead_threads=1 / sliced_threads=0 / nr=0 / decimate=1 / interlaced=0 / bluray_compat=0 / constrained_intra=0 / bframes=6 / b_pyramid=2 / b_adapt=2 / b_bias=0 / direct=3 / weightb=1 / open_gop=0 / weightp=2 / keyint=240 / keyint_min=24 / scenecut=40 / intra_refresh=0 / rc_lookahead=60 / rc=2pass / mbtree=1 / bitrate=2300 / ratetol=1.0 / qcomp=0.60 / qpmin=0 / qpmax=69 / qpstep=4 / cplxblur=20.0 / qblur=0.5 / vbv_maxrate=62500 / vbv_bufsize=78125 / nal_hrd=none / filler=0 / ip_ratio=1.40 / aq=1:1.00
Language                                 : English
Default                                  : Yes
Forced                                   : Yes
Color range                              : Limited
Color primaries                          : BT.709
Transfer characteristics                 : BT.709
Matrix coefficients                      : BT.709

Audio #1
ID                                       : 2
Format                                   : AC-3
Format/Info                              : Audio Coding 3
Codec ID                                 : A_AC3
Duration                                 : 1 h 31 min
Bit rate mode                            : Constant
Bit rate                                 : 320 kb/s
Channel(s)                               : 2 channels
Channel positions                        : Front: L R
Sampling rate                            : 48.0 kHz
Frame rate                               : 31.250 FPS (1536 SPF)
Bit depth                                : 16 bits
Compression mode                         : Lossy
Stream size                              : 210 MiB (11%)
Title                                    : Dub [iTunes]
Language                                 : Russian
Service kind                             : Complete Main
Default                                  : Yes
Forced                                   : Yes

Audio #2
ID                                       : 3
Format                                   : AC-3
Format/Info                              : Audio Coding 3
Codec ID                                 : A_AC3
Duration                                 : 1 h 31 min
Bit rate mode                            : Constant
Bit rate                                 : 320 kb/s
Channel(s)                               : 2 channels
Channel positions                        : Front: L R
Sampling rate                            : 48.0 kHz
Frame rate                               : 31.250 FPS (1536 SPF)
Bit depth                                : 16 bits
Compression mode                         : Lossy
Stream size                              : 210 MiB (11%)
Title                                    : Original
Language                                 : English
Service kind                             : Complete Main
Default                                  : No
Forced                                   : No

Text #1
ID                                       : 4
Format                                   : UTF-8
Codec ID                                 : S_TEXT/UTF8
Codec ID/Info                            : UTF-8 Plain Text
Duration                                 : 1 h 25 min
Bit rate                                 : 56 b/s
Count of elements                        : 1177
Stream size                              : 35.5 KiB (0%)
Title                                    : Full
Language                                 : Spanish
Default                                  : No
Forced                                   : No

Text #2
ID                                       : 5
Format                                   : UTF-8
Codec ID                                 : S_TEXT/UTF8
Codec ID/Info                            : UTF-8 Plain Text
Duration                                 : 1 h 26 min
Bit rate                                 : 75 b/s
Count of elements                        : 1418
Stream size                              : 47.9 KiB (0%)
Title                                    : Full
Language                                 : English
Default                                  : No
Forced                                   : No




Скриншоты:
[+] Всего файлов в раздаче - 1:
Midnight.Sun.2018.RU.EN.BDRip.720p.MIXTV.mkv1.89 GB

Текущая раздача:
ДатаКомментарии    РазмерПиры
2018-06-09 U Полночное солнце / Midnight Sun (2018) BDRip 720p от MIXTV | iTunes 1.89 GB ↑ 93 ↓ 28

Похожие раздачи по запросу - полночное:
2018-06-13 U Полночное солнце / Midnight Sun (2018) BDRip от MegaPeer | iTunes 1.42 GB ↑ 236 ↓ 16
2018-06-12 U Полночное солнце / Midnight Sun (2018) BDRip 720p | iTunes 3.57 GB ↑ 44 ↓ 19
2018-06-10 U Полночное солнце / Midnight Sun (2018) HDRip от Scarabey | iTunes 1.40 GB ↑ 55 ↓ 15
2018-06-09 U Полночное солнце / Midnight Sun (2018) BDRip 1080p | iTunes 6.80 GB ↑ 102 ↓ 69
2018-06-07 U Полночное солнце / Midnight Sun (2018) HDRip от MegaPeer | iTunes 1.46 GB ↑ 49 ↓ 34

Отзывы
Зарегистрируйтесь чтобы добавить комментарий.
Обратная связь
Copyleft ©