↑↓Torrent.by
Поиск
Логин: Регистрация
Пароль: Восстановить пароль
Загрузка...

Тихоокеанский рубеж 2 / Pacific Rim Uprising (2018) HDRip от Seven | iTunes

Скачать tihookeanskiy-rubezh-2-pacific-rim-uprising-2018-hdrip-ot-seven-itunes.torrent
U Магнитная ссылка Размер: 2.18 GB Раздают: 142 Качают: 37 Добавлен: 2018-06-10 09:25:51
Тихоокеанский рубеж 2 / Pacific Rim Uprising (2018) HDRip от Seven | iTunes

Название: Тихоокеанский рубеж 2
Оригинальное название: Pacific Rim Uprising
Год выпуска: 2018
Страна: США, Китай, Великобритания
Жанр:  фантастика, боевик, приключения
Продолжительность: 01:50:42
Перевод: Профессиональный (дублированный)
Субтитры: русские (форсированные, полные), английские (полные)
Оригинальная аудиодорожка: английский
Режиссер: Стивен С. ДеНайт / Steven S. DeKnight

В ролях: Джон Бойега, Скотт Иствуд, Кэйли Спэни, Берн Горман, Чарли Дэй, Тянь Цзин, Макс Чжан, Адриа Архона, Ринко Кикучи, Каран Брэр, Уэсли Вон, Иванна Сахно, Макэню Арата, Лили Цзи, Ширли Родригес, Цзытун Чэнь, Дастин Клер, Сяовэй Юй, Юнчэнь Цянь, Леви Миден, Цзямин Го, Инъин Лань, Зеппелин Хэмилтон.

Описание: События происходят через несколько лет после битвы за Тихоокеанский рубеж, когда команда пилотируемых роботов-защитников остановила вторжение на нашу планету гигантских монстров-Кайдзю и закрыла связывающий миры портал. Города восстанавливаются после разрушительных сражений. Рассказы о войне и её героях становятся историей. Однако многие считают, что Кайдзю вернутся, поэтому отбор и подготовка новых пилотов не прекращаются. Действительно, очень скоро становится понятно, что война не окончена, и своё право на Землю предстоит отстаивать уже новому поколению.

Качество видео: HDRip (исходник: Pacific Rim Uprising 2018 BDRip 1080p)
Формат видео: AVI | Семпл
Видео: 720x304 (2.37:1), 23.976 fps, XviD build 73 ~1975 kbps avg, 0.38 bit/pixel
Аудио 1: 48 kHz, AC3 Dolby Digital, 3/2 (L,C,R,l,r) + LFE ch, ~384.00 kbps avg | RUS
Аудио 2: 48 kHz, AC3 Dolby Digital, 3/2 (L,C,R,l,r) + LFE ch, ~448.00 kbps avg | ENG
[+] Инфо
Формат                                   : AVI
Формат/Информация                        : Audio Video Interleave
Профиль формата                          : OpenDML
Размер файла                             : 2,18 Гбайт
Продолжительность                        : 1 ч. 50 м.
Общий поток                              : 2824 Кбит/сек
Название фильма                          : Тихоокеанский рубеж 2 / Pacific Rim Uprising / 2018
Программа кодирования                    : VirtualDubMod 1.5.10.2 (build 2540/release)
Библиотека кодирования                   : VirtualDubMod build 2540/release
Примечание                               : HDRip by Seven

Видео
Идентификатор                            : 0
Формат                                   : MPEG-4 Visual
Профиль формата                          : Advanced Simple@L5
Настройки формата                        : BVOP1 / Custom Matrix
Параметр BVOP формата                    : 1
Параметр QPel формата                    : Нет
Параметр GMC формата                     : Без точки перехода
Параметр матрицы формата                 : Выборочная
Идентификатор кодека                     : XVID
Идентификатор кодека/Подсказка           : XviD
Продолжительность                        : 1 ч. 50 м.
Битрейт                                  : 1975 Кбит/сек
Ширина                                   : 720 пикселей
Высота                                   : 304 пикселя
Соотношение сторон                       : 2,35:1
Частота кадров                           : 23,976 (24000/1001) кадра/сек
Цветовое пространство                    : YUV
Субдискретизация насыщенности            : 4:2:0
Битовая глубина                          : 8 бит
Тип развёртки                            : Прогрессивная
Метод сжатия                             : С потерями
Бит/(Пиксели*Кадры)                      : 0.376
Размер потока                            : 1,53 Гбайт (70%)
Библиотека кодирования                   : XviD 73

Аудио #1
Идентификатор                            : 1
Формат                                   : AC-3
Формат/Информация                        : Audio Coding 3
Идентификатор кодека                     : 2000
Продолжительность                        : 1 ч. 50 м.
Вид битрейта                             : Постоянный
Битрейт                                  : 384 Кбит/сек
Каналы                                   : 6 каналов
Расположение каналов                     : Front: L C R, Side: L R, LFE
Частота                                  : 48,0 КГц
Частота кадров                           : 31,250 кадров/сек (1536 SPF)
Битовая глубина                          : 16 бит
Метод сжатия                             : С потерями
Размер потока                            : 304 Мбайт (14%)
Выравнивание                             : Разделение по промежуткам
Продолжительность промежутка             : 42  мс. (1,00 видеокадр)
Время предзагрузки промежутка            : 500  мс.

Аудио #2
Идентификатор                            : 2
Формат                                   : AC-3
Формат/Информация                        : Audio Coding 3
Идентификатор кодека                     : 2000
Продолжительность                        : 1 ч. 50 м.
Вид битрейта                             : Постоянный
Битрейт                                  : 448 Кбит/сек
Каналы                                   : 6 каналов
Расположение каналов                     : Front: L C R, Side: L R, LFE
Частота                                  : 48,0 КГц
Частота кадров                           : 31,250 кадров/сек (1536 SPF)
Битовая глубина                          : 16 бит
Метод сжатия                             : С потерями
Размер потока                            : 355 Мбайт (16%)
Выравнивание                             : Разделение по промежуткам
Продолжительность промежутка             : 42  мс. (1,00 видеокадр)
Время предзагрузки промежутка            : 500  мс.



Скриншоты:
[+] Всего файлов в раздаче - 4:
Pacific.Rim.Uprising.2018.HDRip.by.Seven.avi2.18 GB
Pacific.Rim.Uprising.2018.HDRip.by.Seven.Rus.Full.srt123.25 kB
Pacific.Rim.Uprising.2018.HDRip.by.Seven.Eng.Full.srt88.82 kB
Pacific.Rim.Uprising.2018.HDRip.by.Seven.Rus.Forced.srt2.09 kB

Текущая раздача:
ДатаКомментарии    РазмерПиры
2018-06-10 U Тихоокеанский рубеж 2 / Pacific Rim Uprising (2018) HDRip от Seven | iTunes 2.18 GB ↑ 142 ↓ 37

Показать еще раздачи по запросу тихоокеанский:
2018-07-30 U Тихоокеанский рубеж 2 / Pacific Rim Uprising (2018) BDRip 1080p от ExKinoRay | Лицензия 12.83 GB ↑ 21 ↓ 21
2018-07-21 U Тихоокеанский рубеж 2 / Pacific Rim Uprising (2018) BDRip 1080p от OlLanDGroup | D, P | Лицензия 11.77 GB ↑ 53 ↓ 11
2018-07-21 U Тихоокеанский рубеж 2 / Pacific Rim Uprising (2018) HDRip от Scarabey | Лицензия 1.45 GB ↑ 56 ↓ 19
2018-07-20 U Тихоокеанский рубеж 2 / Pacific Rim: Uprising (2018) Blu-ray EUR | Лицензия 37.80 GB ↑ 23 ↓ 7
2018-07-20 U Тихоокеанский рубеж 2 / Pacific Rim Uprising (2018) BDRemux 1080p от ExKinoRay | D, P | Лицензия 29.43 GB ↑ 23 ↓ 10
2018-07-20 U Тихоокеанский рубеж 2 / Pacific Rim Uprising (2018) BDRip от ExKinoRay | Лицензия 1.46 GB ↑ 31 ↓ 11
2018-07-20 U Тихоокеанский рубеж 2 / Pacific Rim Uprising (2018) HDRip от ExKinoRay | D | Лицензия 746.64 MB ↑ 39 ↓ 11

Отзывы
Зарегистрируйтесь чтобы добавить комментарий.
Обратная связь
Copyleft ©