↑↓Torrent.by
Поиск
Логин: Регистрация
Пароль: Восстановить пароль
Загрузка...

Первобытная ярость: Легенда О-Ма / Primal Rage: The Legend of Oh-Mah (2018) WEBRip 1080p | GreenРай Studio

Скачать pervobytnaya-yarost-legenda-o-ma-primal-rage-the-legend-of-oh-mah-2018-webrip-1080p-greenray-studio.torrent
U Магнитная ссылка Размер: 3.43 GB Раздают: 102 Качают: 43 Добавлен: 2018-06-10 10:38:49
Первобытная ярость: Легенда О-Ма / Primal Rage: The Legend of Oh-Mah (2018) WEBRip 1080p | GreenРай Studio

Год выхода: 2018
Наименование: Первобытная ярость
Оригинальное наименование: Primal Rage: The Legend of Oh-Mah
Произведено: США
Жанр:  ужасы
Режиссер постановщик: Патрик Маджи
В главных ролях: Кейси Гальярди, Эндрю Джозеф Монтгомери, Элой Касадос, Джастин Рэйн, Маршал Хилтон, Скотт Филдс, Брэндон Гибсон, Мэтт Херольд, Блейк Джонсон, Джеки Нейман

О фильме: Встерив мужа после годовой отсидки, Эшли везёт его домой. Путь супругов пролегает через лесистую местность, о которой местные индейцы хранят легенды - якобы тут водится древнее лесное существо О-Ма. Начав спорить за рулем, Эшли отвлекается и сбивает мужчину. Пострадавший сильно покалечен, но его раны не очень напоминают следы от удара автомобиля. Пока женщина звонит в скорую, кто-то из леса начинает кидаться в парочку камнями.

Файл
Качество:  WEBRip 1080p
Видео данные: MKV, 1920x810 (2.40:1), 23.976 fps, 4432 Кбит/с
Аудио данные: AAC, 2 ch, 192 Кбит/с
Перевод: Любительский многоголосый (GreenРай Studio)
Продолжительность: 01:46:19

Внимание, имеется  видео и аудио реклама от спонсора показа

Релиз:


[+] Медиаинфо
General
Unique ID                                : 186838358581079025531259568926891089311 (0x8C8FC24AE26B2ED7EBD1AD07FB1E9D9F)
Complete name                            : D:ГРИНРАЙPrimal.Rage.2018.P.WEB-DL.1080p.mkv
Format                                   : Matroska
Format version                           : Version 4 / Version 2
File size                                : 3.43 GiB
Duration                                 : 1 h 46 min
Overall bit rate                         : 4 624 kb/s
Encoded date                             : UTC 2018-06-09 13:14:43
Writing application                      : mkvmerge v21.0.0 ('Tardigrades Will Inherit The Earth') 64-bit
Writing library                          : libebml v1.3.5 + libmatroska v1.4.8

Video
ID                                       : 1
Format                                   : AVC
Format/Info                              : Advanced Video Codec
Format profile                           : High@L4
Format settings                          : CABAC / 1 Ref Frames
Format settings, CABAC                   : Yes
Format settings, RefFrames               : 1 frame
Format settings, GOP                     : M=1, N=30
Codec ID                                 : V_MPEG4/ISO/AVC
Duration                                 : 1 h 46 min
Bit rate                                 : 4 432 kb/s
Width                                    : 1 920 pixels
Height                                   : 810 pixels
Display aspect ratio                     : 2.40:1
Frame rate mode                          : Constant
Frame rate                               : 23.976 (24000/1001) FPS
Color space                              : YUV
Chroma subsampling                       : 4:2:0
Bit depth                                : 8 bits
Scan type                                : Progressive
Bits/(Pixel*Frame)                       : 0.119
Stream size                              : 3.29 GiB (96%)
Language                                 : English
Default                                  : Yes
Forced                                   : No

Audio
ID                                       : 2
Format                                   : AAC
Format/Info                              : Advanced Audio Codec
Format profile                           : LC
Codec ID                                 : A_AAC-2
Duration                                 : 1 h 46 min
Bit rate                                 : 192 kb/s
Channel(s)                               : 2 channels
Channel positions                        : Front: L R
Sampling rate                            : 48.0 kHz
Frame rate                               : 46.875 FPS (1024 SPF)
Compression mode                         : Lossy
Stream size                              : 144 MiB (4%)
Language                                 : English
Default                                  : Yes
Forced                                   : No



Скриншоты:
[+] Всего файлов в раздаче - 1:
Primal.Rage.2018.P.WEB-DL.1080p.mkv3.43 GB

Текущая раздача:
ДатаКомментарии    РазмерПиры
2018-06-10 U Первобытная ярость: Легенда О-Ма / Primal Rage: The Legend of Oh-Mah (2018) WEBRip 1080p | GreenРай Studio 3.43 GB ↑ 102 ↓ 43

Похожие раздачи по запросу - первобытная:
2018-06-10 U Первобытная ярость: Легенда О-Ма / Primal Rage: The Legend of Oh-Mah (2018) WEBRip 720p | GreenРай Studio 2.70 GB ↑ 47 ↓ 33
2018-06-10 U Первобытная ярость: Легенда О-Ма / Primal Rage: The Legend of Oh-Mah (2018) WEBRip | GreenРай Studio 1.37 GB ↑ 63 ↓ 46
2018-05-09 U Первобытная ярость: Легенда О-Ма / Primal Rage: The Legend of Oh-Mah (2018) WEBRip 1080p | L1 3.75 GB ↑ 39 ↓ 34
2018-05-09 U Первобытная ярость: Легенда О-Ма / Primal Rage: The Legend of Oh-Mah (2018) WEBRip | L1 1.23 GB ↑ 234 ↓ 34

Отзывы
Зарегистрируйтесь чтобы добавить комментарий.
Обратная связь
Copyleft ©