↑↓Torrent.by
Поиск
Логин: Регистрация
Пароль: Восстановить пароль
Загрузка...

Тихоокеанский рубеж 2 / Pacific Rim Uprising (2018) BDRemux 1080p от ExKinoRay | D, P | iTunes

Скачать tihookeanskiy-rubezh-2-pacific-rim-uprising-2018-bdremux-1080p-ot-exkinoray-d-p-itunes.torrent
U Магнитная ссылка Размер: 29.09 GB Раздают: 56 Качают: 165 Добавлен: 2018-06-10 10:38:58
Тихоокеанский рубеж 2 / Pacific Rim Uprising (2018) BDRemux 1080p от ExKinoRay | D, P | iTunes

Название: Тихоокеанский рубеж 2
Оригинальное название: Pacific Rim Uprising
Год выхода: 2018
Жанр: Фантастика, боевик, приключения
Режиссер: Стивен С. ДеНайт
В ролях: Джон Бойега, Скотт Иствуд, Кэйли Спэни, Берн Горман, Чарли Дэй, Тянь Цзин, Макс Чжан, Адриа Архона, Ринко Кикучи, Каран Брэр, Уэсли Вон, Иванна Сахно, Макэню Арата, Лили Цзи, Ширли Родригес, Цзытун Чэнь, Дастин Клер, Сяовэй Юй, Юнчэнь Цянь, Леви Миден, Цзямин Го, Инъин Лань, Зеппелин Хэмилтон

О фильме: События происходят через несколько лет после битвы за Тихоокеанский рубеж, когда команда пилотируемых роботов-защитников остановила вторжение на нашу планету гигантских монстров-Кайдзю и закрыла связывающий миры портал. Города восстанавливаются после разрушительных сражений. Рассказы о войне и её героях становятся историей. Однако многие считают, что Кайдзю вернутся, поэтому отбор и подготовка новых пилотов не прекращаются. Действительно, очень скоро становится понятно, что война не окончена, и своё право на Землю предстоит отстаивать уже новому поколению.

Страна: Китай, США,
Студия: Universal Pictures
Продолжительность: 01:50:42
Перевод(ы):
#1: Дублированный | iTunes
#2: Профессиональный многоголосый | HDRezka Studio

Качество: BDRemux 1080p
Видео: MPEG-4 AVC, 1920x1080, 32.5 Mbit/s, 23.976 fps
Звук:
Аудио #01: 48 kHz, AC3, 5.1, 384 Kbps | iTunes | RUS |
Аудио #02: 48 kHz, AC3, 2.0, 192 Kbps | HDRezka | RUS |
Аудио #03: 48 kHz, TrueHD, 7.1, 4001 Kbps | Оригинал |  ENG |
Аудио #04: 48 kHz, AC3, 5.1, 448 Kbps | Оригинал |  ENG |
Субтитры: Русские (forced, full), английские

Релиз: Автор релиза:


[+] MI
General
Unique ID                   : 261364948762358146939772876271199523769 (0xC4A10EE12DF21ABD9CD4FD46593913B9)
Complete name               : D:Video111Pacific.Rim.Uprising.2018.BDREMUX.1080p.ExKinoRay.mkv
Format                      : Matroska
Format version              : Version 4 / Version 2
File size                   : 29.1 GiB
Duration                    : 1 h 50 min
Overall bit rate mode       : Variable
Overall bit rate            : 37.6 Mb/s
Movie name                  : Pacific Rim Uprising 2018 from ExKinoRay
Encoded date                : UTC 2018-06-10 02:47:25
Writing application         : mkvmerge v23.0.0 ('The Bride Said No') 64-bit
Writing library             : libebml v1.3.6 + libmatroska v1.4.9

Video
ID                          : 1
Format                      : AVC
Format/Info                 : Advanced Video Codec
Format profile              : High@L4.1
Format settings             : CABAC / 4 Ref Frames
Format settings, CABAC      : Yes
Format settings, ReFrames   : 4 frames
Codec ID                    : V_MPEG4/ISO/AVC
Duration                    : 1 h 50 min
Bit rate mode               : Variable
Bit rate                    : 32.5 Mb/s
Maximum bit rate            : 37.0 Mb/s
Width                       : 1 920 pixels
Height                      : 1 080 pixels
Display aspect ratio        : 16:9
Frame rate mode             : Constant
Frame rate                  : 23.976 (24000/1001) FPS
Color space                 : YUV
Chroma subsampling          : 4:2:0
Bit depth                   : 8 bits
Scan type                   : Progressive
Bits/(Pixel*Frame)          : 0.654
Stream size                 : 25.1 GiB (86%)
Language                    : English
Default                     : Yes
Forced                      : No

Audio #1
ID                          : 2
Format                      : AC-3
Format/Info                 : Audio Coding 3
Codec ID                    : A_AC3
Duration                    : 1 h 50 min
Bit rate mode               : Constant
Bit rate                    : 384 kb/s
Channel(s)                  : 6 channels
Channel positions           : Front: L C R, Side: L R, LFE
Sampling rate               : 48.0 kHz
Frame rate                  : 31.250 FPS (1536 SPF)
Bit depth                   : 16 bits
Compression mode            : Lossy
Stream size                 : 304 MiB (1%)
Title                       : iTunes
Language                    : Russian
Service kind                : Complete Main
Default                     : Yes
Forced                      : Yes

Audio #2
ID                          : 3
Format                      : AC-3
Format/Info                 : Audio Coding 3
Codec ID                    : A_AC3
Duration                    : 1 h 50 min
Bit rate mode               : Constant
Bit rate                    : 192 kb/s
Channel(s)                  : 2 channels
Channel positions           : Front: L R
Sampling rate               : 48.0 kHz
Frame rate                  : 31.250 FPS (1536 SPF)
Bit depth                   : 16 bits
Compression mode            : Lossy
Stream size                 : 152 MiB (1%)
Title                       : HDRezka
Language                    : Russian
Service kind                : Complete Main
Default                     : No
Forced                      : No

Audio #3
ID                          : 4
Format                      : TrueHD
Format profile              : TrueHD+Atmos / TrueHD
Codec ID                    : A_TRUEHD
Duration                    : 1 h 50 min
Bit rate mode               : Variable
Bit rate                    : 4 001 kb/s
Maximum bit rate            : 7 437 kb/s
Channel(s)                  : Object Based / 8 channels
Channel positions           : Object Based / Front: L C R, Side: L R, Back: L R, LFE
Sampling rate               :  / 48.0 kHz
Frame rate                  : 1 200.000 FPS (40 SPF)
Compression mode            : Lossless
Stream size                 : 3.09 GiB (11%)
Title                       : Original
Language                    : English
Default                     : No
Forced                      : No

Audio #4
ID                          : 5
Format                      : AC-3
Format/Info                 : Audio Coding 3
Codec ID                    : A_AC3
Duration                    : 1 h 50 min
Bit rate mode               : Constant
Bit rate                    : 448 kb/s
Channel(s)                  : 6 channels
Channel positions           : Front: L C R, Side: L R, LFE
Sampling rate               : 48.0 kHz
Frame rate                  : 31.250 FPS (1536 SPF)
Bit depth                   : 16 bits
Compression mode            : Lossy
Stream size                 : 355 MiB (1%)
Language                    : English
Service kind                : Complete Main
Default                     : No
Forced                      : No

Text #1
ID                          : 6
Format                      : UTF-8
Codec ID                    : S_TEXT/UTF8
Codec ID/Info               : UTF-8 Plain Text
Duration                    : 1 h 38 min
Bit rate                    : 1 b/s
Count of elements           : 25
Stream size                 : 1.15 KiB (0%)
Title                       : Forced
Language                    : Russian
Default                     : Yes
Forced                      : Yes

Text #2
ID                          : 7
Format                      : UTF-8
Codec ID                    : S_TEXT/UTF8
Codec ID/Info               : UTF-8 Plain Text
Duration                    : 1 h 40 min
Bit rate                    : 104 b/s
Count of elements           : 1191
Stream size                 : 76.6 KiB (0%)
Title                       : full
Language                    : Russian
Default                     : No
Forced                      : No

Text #3
ID                          : 8
Format                      : UTF-8
Codec ID                    : S_TEXT/UTF8
Codec ID/Info               : UTF-8 Plain Text
Duration                    : 1 h 40 min
Bit rate                    : 59 b/s
Count of elements           : 1161
Stream size                 : 43.4 KiB (0%)
Title                       : full
Language                    : English
Default                     : No
Forced                      : No

Menu
00:00:00.000                : en:00:00:00.000
00:06:54.873                : en:00:06:54.873
00:13:05.368                : en:00:13:05.368
00:15:51.075                : en:00:15:51.075
00:20:36.360                : en:00:20:36.360
00:24:49.697                : en:00:24:49.697
00:31:08.241                : en:00:31:08.241
00:37:56.065                : en:00:37:56.065
00:43:37.949                : en:00:43:37.949
00:49:01.939                : en:00:49:01.939
00:53:40.926                : en:00:53:40.926
00:58:12.030                : en:00:58:12.030
01:04:45.006                : en:01:04:45.006
01:09:25.536                : en:01:09:25.536
01:14:36.722                : en:01:14:36.722
01:22:53.427                : en:01:22:53.427
01:29:02.546                : en:01:29:02.546
01:33:10.585                : en:01:33:10.585
01:38:07.381                : en:01:38:07.381
01:40:55.049                : en:01:40:55.049



Скриншоты:
[+] Всего файлов в раздаче - 1:
Pacific.Rim.Uprising.2018.BDREMUX.1080p.ExKinoRay.mkv29.09 GB

Текущая раздача:
ДатаКомментарии    РазмерПиры
2018-06-10 U Тихоокеанский рубеж 2 / Pacific Rim Uprising (2018) BDRemux 1080p от ExKinoRay | D, P | iTunes 29.09 GB ↑ 56 ↓ 165

Показать еще раздачи по запросу тихоокеанский:
2018-06-14 U Тихоокеанский рубеж 2 / Pacific Rim Uprising (2018) BDRip от ExKinoRay | iTunes 1.41 GB ↑ 48 ↓ 13
2018-06-14 U Тихоокеанский рубеж 2 / Pacific Rim: Uprising (2018) BDRip 1080p от Ash61 | 3D-Video | halfOU | iTunes 13.16 GB ↑ 66 ↓ 110
2018-06-14 U Тихоокеанский рубеж 2 / Pacific Rim Uprising (2018) BDRip от ExKinoRay | iTunes 2.13 GB ↑ 62 ↓ 20
2018-06-13 U Тихоокеанский рубеж 2 / Pacific Rim Uprising (2018) BDRip 1080p от qqss44 & MegaPeer | iTunes 7.55 GB ↑ 80 ↓ 85
2018-06-12 U Тихоокеанский рубеж 2 / Pacific Rim Uprising (2018) HDRip от ExKinoRay | D | iTunes 746.61 MB ↑ 55 ↓ 13
2018-06-12 U Тихоокеанский рубеж 2 / Pacific Rim Uprising (2018) BDRip 1080p от Rustorka | 60 fps | iTunes 6.65 GB ↑ 87 ↓ 96
2018-06-12 U Тихоокеанский рубеж 2 / Pacific Rim: Uprising (2018) BDRip 720p от HELLYWOOD | iTunes 4.17 GB ↑ 67 ↓ 52

Отзывы
Зарегистрируйтесь чтобы добавить комментарий.
Обратная связь
Copyleft ©