↑↓Torrent.by
Поиск
Логин: Регистрация
Пароль: Восстановить пароль
Загрузка...

Tomb Raider: Лара Крофт / Tomb Raider (2018) BDRip 720p от ExKinoRay | Лицензия

Скачать tomb-raider-lara-kroft-2018-bdrip-720p-ot-exkinoray-licenziya.torrent
U Магнитная ссылка Размер: 4.60 GB Раздают: 1357 Качают: 902 Добавлен: 2018-06-10 14:02:00
Tomb Raider: Лара Крофт / Tomb Raider (2018) BDRip 720p от ExKinoRay | Лицензия

Название: Tomb Raider: Лара Крофт
Оригинальное название: Tomb Raider
Год выхода: 2018
Жанр: Боевик, приключения
Режиссер: Роар Утхауг
В ролях: Алисия Викандер, Доминик Уэст, Уолтон Гоггинс, Дэниэл Ву, Кристин Скотт Томас, Дерек Джекоби, Александр Виллауме, Тамер Барджаг, Эдриан Коллинз, Кинэн Эррисон, Андриан Мазив, Милтон Шорр, Ханна Джон-Кэймен, Питер Уэйсон, Сэмюэл Мак, Скай Янг, Билли Постлтуэйт, Рекха Джон-Чериян, Антонио Аакил, Эмили Кэри, Рэй Лим

О фильме: Лара Крофт — весьма самостоятельная дочь эксцентричного искателя приключений, который пропал, едва она стала подростком. Теперь ей двадцать один, она бесцельно проживает свою жизнь, курьером рассекая на байке по забитым улицам восточного Лондона. Решительно настроенная пробиться сама, она отказывается брать на себя руководство глобальной империей отца, столь же категорично отвергая мысль о том, что он действительно пропал. Слыша советы о том, что ей нужно смириться с этим фактом и жить дальше после семи лет бесплодных поисков, Лара уже и сама не понимает, что же заставляет ее распутывать обстоятельства его таинственного исчезновения.

Страна: Великобритания, США
Студия: Metro-Goldwyn-Mayer (MGM), Square Enix Inc., Warner Bros. Pictures
Продолжительность: 01:57:50
Перевод: Дублированный | Лицензия

Качество: BDRip 720p
Видео: MPEG-4 AVC, 1280x536, 4695 Кbit/s, 23.976 fps
Звук:
Аудио #01: 48 kHz, AC3, 5.1, 448 Kbps | Дублированный | RUS |
Аудио #02: 48 kHz, AC3, 5.1, 448 Kbps | Оригинал |  ENG |
Субтитры: Русские (forced, full), английские

Релиз: Автор релиза:


[+] MI
General
Unique ID                   : 22871188519056059029655393610229287339 (0x1134D4A7A870909556341DDAF2FB09AB)
Complete name               : D:Video111Tomb.Raider.2018.BDRip.720p.ExKinoRay.mkv
Format                      : Matroska
Format version              : Version 4 / Version 2
File size                   : 4.60 GiB
Duration                    : 1 h 57 min
Overall bit rate            : 5 594 kb/s
Movie name                  : Tomb Raider 2018 from ExKinoRay
Encoded date                : UTC 2018-06-10 07:09:34
Writing application         : mkvmerge v23.0.0 ('The Bride Said No') 64-bit
Writing library             : libebml v1.3.6 + libmatroska v1.4.9

Video
ID                          : 1
Format                      : AVC
Format/Info                 : Advanced Video Codec
Format profile              : High@L4.1
Format settings             : CABAC / 12 Ref Frames
Format settings, CABAC      : Yes
Format settings, ReFrames   : 12 frames
Codec ID                    : V_MPEG4/ISO/AVC
Duration                    : 1 h 57 min
Bit rate                    : 4 695 kb/s
Width                       : 1 280 pixels
Height                      : 536 pixels
Display aspect ratio        : 2.40:1
Frame rate mode             : Constant
Frame rate                  : 23.976 (24000/1001) FPS
Color space                 : YUV
Chroma subsampling          : 4:2:0
Bit depth                   : 8 bits
Scan type                   : Progressive
Bits/(Pixel*Frame)          : 0.285
Stream size                 : 3.86 GiB (84%)
Writing library             : x264 core 142 r2431+42 c69a006 tMod [8-bit@4:2:0 X86_64]
Encoding settings           : cabac=1 / ref=12 / deblock=1:-3:-3 / analyse=0x3:0x113 / me=umh / subme=10 / psy=1 / fade_compensate=0.00 / psy_rd=1.00:0.05 / mixed_ref=1 / me_range=32 / chroma_me=1 / trellis=2 / 8x8dct=1 / cqm=0 / deadzone=21,11 / fast_pskip=0 / chroma_qp_offset=-2 / threads=48 / lookahead_threads=4 / sliced_threads=0 / nr=0 / decimate=1 / interlaced=0 / bluray_compat=0 / constrained_intra=0 / fgo=0 / bframes=8 / b_pyramid=2 / b_adapt=2 / b_bias=0 / direct=3 / weightb=1 / open_gop=0 / weightp=2 / keyint=250 / keyint_min=23 / scenecut=40 / intra_refresh=0 / rc=crf / mbtree=0 / crf=16.0000 / qcomp=0.60 / qpmin=0:0:0 / qpmax=69:69:69 / qpstep=4 / ip_ratio=1.40 / pb_ratio=1.30 / aq=3:0.80 / aq-sensitivity=10.00 / aq-factor=1.00:1.00:1.00 / aq2=0 / aq3=0
Language                    : English
Default                     : Yes
Forced                      : No
Color range                 : Limited
Matrix coefficients         : BT.709

Audio #1
ID                          : 2
Format                      : AC-3
Format/Info                 : Audio Coding 3
Codec ID                    : A_AC3
Duration                    : 1 h 57 min
Bit rate mode               : Constant
Bit rate                    : 448 kb/s
Channel(s)                  : 6 channels
Channel positions           : Front: L C R, Side: L R, LFE
Sampling rate               : 48.0 kHz
Frame rate                  : 31.250 FPS (1536 SPF)
Bit depth                   : 16 bits
Compression mode            : Lossy
Stream size                 : 378 MiB (8%)
Title                       : Dub [License]
Language                    : Russian
Service kind                : Complete Main
Default                     : Yes
Forced                      : Yes

Audio #2
ID                          : 3
Format                      : AC-3
Format/Info                 : Audio Coding 3
Codec ID                    : A_AC3
Duration                    : 1 h 57 min
Bit rate mode               : Constant
Bit rate                    : 448 kb/s
Channel(s)                  : 6 channels
Channel positions           : Front: L C R, Side: L R, LFE
Sampling rate               : 48.0 kHz
Frame rate                  : 31.250 FPS (1536 SPF)
Bit depth                   : 16 bits
Compression mode            : Lossy
Stream size                 : 378 MiB (8%)
Title                       : Original
Language                    : English
Service kind                : Complete Main
Default                     : No
Forced                      : No

Text #1
ID                          : 4
Format                      : UTF-8
Codec ID                    : S_TEXT/UTF8
Codec ID/Info               : UTF-8 Plain Text
Duration                    : 1 h 56 min
Bit rate                    : 1 b/s
Count of elements           : 36
Stream size                 : 1.35 KiB (0%)
Title                       : Forced
Language                    : Russian
Default                     : Yes
Forced                      : Yes

Text #2
ID                          : 5
Format                      : UTF-8
Codec ID                    : S_TEXT/UTF8
Codec ID/Info               : UTF-8 Plain Text
Duration                    : 1 h 56 min
Bit rate                    : 40 b/s
Count of elements           : 859
Stream size                 : 34.9 KiB (0%)
Title                       : Full
Language                    : Russian
Default                     : No
Forced                      : No

Text #3
ID                          : 6
Format                      : UTF-8
Codec ID                    : S_TEXT/UTF8
Codec ID/Info               : UTF-8 Plain Text
Duration                    : 1 h 50 min
Bit rate                    : 29 b/s
Count of elements           : 859
Stream size                 : 24.1 KiB (0%)
Title                       : Full
Language                    : English
Default                     : No
Forced                      : No

Text #4
ID                          : 7
Format                      : UTF-8
Codec ID                    : S_TEXT/UTF8
Codec ID/Info               : UTF-8 Plain Text
Duration                    : 1 h 50 min
Bit rate                    : 35 b/s
Count of elements           : 1121
Stream size                 : 28.5 KiB (0%)
Title                       : SDH
Language                    : English
Default                     : No
Forced                      : No

Text #5
ID                          : 8
Format                      : UTF-8
Codec ID                    : S_TEXT/UTF8
Codec ID/Info               : UTF-8 Plain Text
Duration                    : 1 h 50 min
Bit rate                    : 49 b/s
Count of elements           : 1197
Stream size                 : 40.3 KiB (0%)
Title                       : SDH Colored
Language                    : English
Default                     : No
Forced                      : No

Menu
00:00:00.000                : en:00:00:00.000
00:13:13.251                : en:00:13:13.251
00:24:04.234                : en:00:24:04.234
00:31:57.999                : en:00:31:57.999
00:39:57.061                : en:00:39:57.061
00:50:31.070                : en:00:50:31.070
01:04:49.844                : en:01:04:49.844
01:13:58.100                : en:01:13:58.100
01:20:17.396                : en:01:20:17.396
01:27:41.131                : en:01:27:41.131
01:38:41.624                : en:01:38:41.624
01:51:17.421                : en:01:51:17.421



[+] Осторожно - спойлер!
https://yadi.sk/d/nvDdeJcD3XeSKu



Скриншоты:
[+] Всего файлов в раздаче - 1:
Tomb.Raider.2018.BDRip.720p.ExKinoRay.mkv4.60 GB

Текущая раздача:
ДатаКомментарии    РазмерПиры
2018-06-10 U Tomb Raider: Лара Крофт / Tomb Raider (2018) BDRip 720p от ExKinoRay | Лицензия 4.60 GB ↑ 1357 ↓ 902

Показать еще раздачи по запросу tomb:
2018-06-18 U Tomb Raider: Лара Крофт / Tomb Raider (2018) BDRip 1080p от Rustorka | 60 fps | Лицензия 15.94 GB ↑ 32 ↓ 23
2018-06-18 U Tomb Raider: Лара Крофт / Tomb Raider (2018) BDRip от HQCLUB | Лицензия 2.18 GB ↑ 43 ↓ 17
2018-06-16 U Tomb Raider: Лара Крофт / Tomb Raider (2018) BDRemux 1080p | US Transfer | D, P, L1 | Лицензия 26.60 GB ↑ 55 ↓ 39
2018-06-15 U Tomb Raider: Лара Крофт / Tomb Raider (2018) BDRip 1080p от Ash61 | 3D-Video | halfOU | Лицензия 8.30 GB ↑ 86 ↓ 102
2018-06-14 U Tomb Raider: Лара Крофт / Tomb Raider (2018) UHD BDRemux 2160p от ExKinoRay | HDR | D, P, L1 | Лицензия 54.05 GB ↑ 53 ↓ 64
2018-06-11 U Tomb Raider: Лара Крофт / Tomb Raider (2018) BDRip-HEVC 1080p от ХиМиК | D, P, L1 8.98 GB ↑ 94 ↓ 81
2018-06-11 U Tomb Raider: Лара Крофт / Tomb Raider (2018) HDRip от Scarabey | Лицензия 1.45 GB ↑ 107 ↓ 82

Отзывы
Зарегистрируйтесь чтобы добавить комментарий.
Обратная связь
Copyleft ©