↑↓Torrent.by
Поиск
Логин: Регистрация
Пароль: Восстановить пароль
Загрузка...

Tomb Raider: Лара Крофт / Tomb Raider (2018) BDRip-AVC | Лицензия

Скачать tomb-raider-lara-kroft-2018-bdrip-avc-licenziya.torrent
U Магнитная ссылка Размер: 1.65 GB Раздают: 79 Качают: 54 Добавлен: 2018-06-10 14:02:40
Tomb Raider: Лара Крофт / Tomb Raider (2018) BDRip-AVC | Лицензия

Название: Tomb Raider: Лара Крофт
Оригинальное название: Tomb Raider
Год выхода: 2018
Жанр:  Боевик, приключения
Режиссер: Роар Утхауг
В ролях: Алисия Викандер, Доминик Уэст, Уолтон Гоггинс, Дэниэл Ву, Кристин Скотт Томас, Дерек Джекоби, Александр Виллауме, Тамер Барджаг, Эдриан Коллинз, Кинэн Эррисон, Андриан Мазив, Милтон Шорр, Ханна Джон-Кэймен, Питер Уэйсон, Сэмюэл Мак, Скай Янг, Билли Постлтуэйт, Рекха Джон-Чериян, Антонио Аакил, Эмили Кэри, Рэй Лим

О фильме:
Лара Крофт - весьма самостоятельная дочь эксцентричного искателя приключений, который пропал, едва она стала подростком. Теперь ей двадцать один, она бесцельно проживает свою жизнь, курьером рассекая на байке по забитым улицам восточного Лондона, а ее заработка едва хватает на оплату квартиры и занятий в колледже. Решительно настроенная пробиться сама, она отказывается брать на себя руководство глобальной империей отца, столь же категорично отвергая мысль о том, что он действительно пропал. Слыша советы о том, что ей нужно смириться с этим фактом и жить дальше после семи лет бесплодных поисков, Лара уже и сама не понимает, что же заставляет ее распутывать обстоятельства его таинственной смерти.

Страна: Великобритания, США
Студия: Metro-Goldwyn-Mayer (MGM), Square Enix Inc., Warner Bros. Pictures
Продолжительность: 01:57:50
Перевод: Дублированный | Лицензия
Субтитры: Русские (Forced)

Файл
Кодек: x264
Качество: BDRip-AVC [BDRemux 1080p]
Видео: High@L4.1, 960x400, ~1568 kbps, 23,976 fps
Аудио: AC3, 6 ch, 448 Kbps
[+] Mediainfo:
x264 info:
x264 info: frame I:1507  Avg QP:16.59  size: 44378
x264 info: frame P:42962 Avg QP:18.73  size: 16372
x264 info: frame B:125052 Avg QP:20.19  size:  4827
x264 info: consecutive B-frames:  4.6%  4.5% 12.1% 25.0% 17.9% 25.6%  4.9%  1.5%  1.3%  0.8%  0.7%  0.3%  0.3%  0.2%  0.1%  0.1%  0.2%

General
Unique ID                   : 91964838390873561583904339481202269871 (0x452FC89A959EFD16E8DE19FF87C81EAF)
Complete name               : E:TempЛара Крофт_2018_BDRIP-AVC_[-=DoMiNo=-].mkv
Format                      : Matroska
Format version              : Version 4 / Version 2
File size                   : 1.65 GiB
Duration                    : 1 h 57 min
Overall bit rate            : 2 007 kb/s
Movie name                  : Tomb Raider: Лара Крофт
Encoded date                : UTC 2018-06-10 08:50:12
Writing application         : mkvmerge v23.0.0 ('The Bride Said No') 64-bit
Writing library             : libebml v1.3.6 + libmatroska v1.4.9
Attachments                 : poster.jpg

Video
ID                          : 1
Format                      : AVC
Format/Info                 : Advanced Video Codec
Format profile              : High@L4.1
Format settings             : CABAC / 14 Ref Frames
Format settings, CABAC      : Yes
Format settings, ReFrames   : 14 frames
Codec ID                    : V_MPEG4/ISO/AVC
Duration                    : 1 h 57 min
Bit rate                    : 1 568 kb/s
Width                       : 960 pixels
Height                      : 400 pixels
Display aspect ratio        : 2.40:1
Frame rate mode             : Constant
Frame rate                  : 23.976 (24000/1001) FPS
Color space                 : YUV
Chroma subsampling          : 4:2:0
Bit depth                   : 8 bits
Scan type                   : Progressive
Bits/(Pixel*Frame)          : 0.170
Stream size                 : 1.28 GiB (78%)
Title                       : RIP_BY_-=DoMiNo=-
Writing library             : x264 core 155 r2901M 7d0ff22
Encoding settings           : cabac=1 / ref=14 / deblock=1:-1:-1 / analyse=0x3:0x133 / me=umh / subme=11 / psy=1 / psy_rd=1.05:0.15 / mixed_ref=1 / me_range=48 / chroma_me=1 / trellis=2 / 8x8dct=1 / cqm=0 / deadzone=21,11 / fast_pskip=0 / chroma_qp_offset=-3 / threads=6 / lookahead_threads=1 / sliced_threads=0 / nr=0 / decimate=1 / interlaced=0 / bluray_compat=0 / constrained_intra=0 / bframes=16 / b_pyramid=2 / b_adapt=2 / b_bias=0 / direct=3 / weightb=1 / open_gop=0 / weightp=2 / keyint=240 / keyint_min=24 / scenecut=40 / intra_refresh=0 / rc_lookahead=100 / rc=2pass / mbtree=0 / bitrate=1568 / ratetol=1.0 / qcomp=0.70 / qpmin=0 / qpmax=69 / qpstep=4 / cplxblur=20.0 / qblur=0.5 / vbv_maxrate=50000 / vbv_bufsize=50000 / nal_hrd=none / filler=0 / ip_ratio=1.40 / pb_ratio=1.30 / aq=1:0.85
Language                    : English
Default                     : Yes
Forced                      : No

Audio
ID                          : 2
Format                      : AC-3
Format/Info                 : Audio Coding 3
Codec ID                    : A_AC3
Duration                    : 1 h 57 min
Bit rate mode               : Constant
Bit rate                    : 448 kb/s
Channel(s)                  : 6 channels
Channel positions           : Front: L C R, Side: L R, LFE
Sampling rate               : 48.0 kHz
Frame rate                  : 31.250 FPS (1536 SPF)
Bit depth                   : 16 bits
Compression mode            : Lossy
Stream size                 : 378 MiB (22%)
Title                       : RUS Дублированный (Лицензия)
Language                    : Russian
Service kind                : Complete Main
Default                     : Yes
Forced                      : No

Text
ID                          : 3
Format                      : UTF-8
Codec ID                    : S_TEXT/UTF8
Codec ID/Info               : UTF-8 Plain Text
Duration                    : 1 h 56 min
Bit rate                    : 1 b/s
Count of elements           : 36
Stream size                 : 1.35 KiB (0%)
Title                       : Русские (Forced)
Language                    : Russian
Default                     : Yes
Forced                      : Yes

Menu
00:00:00.000                : :Chapter 01
00:13:13.250                : :Chapter 02
00:24:04.234                : :Chapter 03
00:31:57.999                : :Chapter 04
00:39:57.061                : :Chapter 05
00:50:31.069                : :Chapter 06
01:04:49.844                : :Chapter 07
01:13:58.100                : :Chapter 08
01:20:17.395                : :Chapter 09
01:27:41.130                : :Chapter 10
01:38:41.624                : :Chapter 11
01:51:17.420                : :Chapter 12



Скриншоты:
[+] Всего файлов в раздаче - 1:
Лара Крофт_2018_BDRIP-AVC_[-=DoMiNo=-].mkv1.65 GB

Текущая раздача:
ДатаКомментарии    РазмерПиры
2018-06-10 U Tomb Raider: Лара Крофт / Tomb Raider (2018) BDRip-AVC | Лицензия 1.65 GB ↑ 79 ↓ 54

Показать еще раздачи по запросу tomb:
Сегодня U Tomb Raider: Лара Крофт / Tomb Raider (2018) BDRip 1080p от Rustorka | 60 fps | Лицензия 15.94 GB ↑ 32 ↓ 23
Сегодня U Tomb Raider: Лара Крофт / Tomb Raider (2018) BDRip от HQCLUB | Лицензия 2.18 GB ↑ 42 ↓ 17
2018-06-16 U Tomb Raider: Лара Крофт / Tomb Raider (2018) BDRemux 1080p | US Transfer | D, P, L1 | Лицензия 26.60 GB ↑ 56 ↓ 38
2018-06-15 U Tomb Raider: Лара Крофт / Tomb Raider (2018) BDRip 1080p от Ash61 | 3D-Video | halfOU | Лицензия 8.30 GB ↑ 84 ↓ 102
2018-06-14 U Tomb Raider: Лара Крофт / Tomb Raider (2018) UHD BDRemux 2160p от ExKinoRay | HDR | D, P, L1 | Лицензия 54.05 GB ↑ 52 ↓ 62
2018-06-11 U Tomb Raider: Лара Крофт / Tomb Raider (2018) BDRip-HEVC 1080p от ХиМиК | D, P, L1 8.98 GB ↑ 94 ↓ 81
2018-06-11 U Tomb Raider: Лара Крофт / Tomb Raider (2018) HDRip от Scarabey | Лицензия 1.45 GB ↑ 106 ↓ 80

Отзывы
Зарегистрируйтесь чтобы добавить комментарий.
Обратная связь
Copyleft ©