↑↓Torrent.by
Поиск
Логин: Регистрация
Пароль: Восстановить пароль
Загрузка...

Излом времени / A Wrinkle in Time (2018) BDRip 1080p от qqss44 & MegaPeer | iTunes

Скачать izlom-vremeni-a-wrinkle-in-time-2018-bdrip-1080p-ot-qqss44-megapeer-itunes.torrent
U Магнитная ссылка Размер: 6.67 GB Раздают: 237 Качают: 151 Добавлен: 2018-06-10 19:44:59
Излом времени / A Wrinkle in Time (2018) BDRip 1080p от qqss44 & MegaPeer | iTunes

Название: Излом времени
Оригинальное название: A Wrinkle in Time
]Год выпуска: 2018
Страна: США / Walt Disney Pictures
Жанр:  фантастика, фэнтези, приключения, семейный
Продолжительность: 01:49:37
Перевод: Профессиональный (дублированный)
Субтитры: нет

Режиссер: Ава ДюВерней / Ava DuVernay

В ролях: Сторм Рейд, Опра Уинфри, Риз Уизерспун, Минди Кейлинг, Леви Миллер, Дерик Маккейб, Крис Пайн, Гугу Мбата-Роу, Зак Галифианакис, Майкл Пенья, Андре Холлэнд, Роуэн Бланчард, Беллами Янг, Дэвид Ойелоуо, Конрад Робертс, Ивет Кейсон, Уилл МакКормак, Дэниэл МакФерсон, Тэрин Лук, Тим Кенг, Лайрик Уилсон.

Описание: Юная Мэг вместе с младшим братом и школьным приятелем решает отправиться на поиски своего отца, учёного-физика, пропавшего в ходе научного эксперимента. Найти его предстоит не в привычном мире, а в таинственных изломах времени и пространства, где понятие реальности относительно и ничему нельзя верить! Выбраться из фантастических миров и победить тьму, которая распространяется по вселенной, можно, только изучив себя и приняв свои недостатки.

Файл
Формат: MKV, BDRip 1080p
Видео: MPEG-4 AVC, 8333 Кбит/с, 1920x804
Aудио#1: [RUS] AC3 | 48 KHz | 5.1 (Front: L С R Side: L R) + LFE | ~384 kbps
Субтитры: русские (полные)
Релиз от:
[+] МИ


Общее
Уникальный идентификатор                 : 200769623014381102664507869366175515155 (0x970AD2A8D50433FE9AE52AE95751C213)
Полное имя                               : H:A.Wrinkle.in.Time.(2018).BDRip-1080p.MegaPeer.(qqss44).mkv
Формат                                   : Matroska
Версия формата                           : Version 2
Размер файла                             : 6,67 Гбайт
Продолжительность                        : 1 ч. 49 м.
Общий поток                              : 8697 Кбит/сек
Название фильма                          : A.Wrinkle.in.Time.(2018).BDRip-1080p.MegaPeer.(qqss44)
Дата кодирования                         : UTC 2018-06-10 09:47:05
Программа кодирования                    : mkvmerge v5.8.0 ('No Sleep / Pillow') built on Sep  2 2012 15:37:04
Библиотека кодирования                   : libebml v1.2.3 + libmatroska v1.3.0

Видео
Идентификатор                            : 1
Формат                                   : AVC
Формат/Информация                        : Advanced Video Codec
Профиль формата                          : High@L4.1
Параметр CABAC формата                   : Да
Параметр ReFrames формата                : 5 кадров
Идентификатор кодека                     : V_MPEG4/ISO/AVC
Продолжительность                        : 1 ч. 49 м.
Битрейт                                  : 8333 Кбит/сек
Ширина                                   : 1920 пикселей
Высота                                   : 804 пикселя
Соотношение сторон                       : 2,40:1
Режим частоты кадров                     : Постоянный
Частота кадров                           : 23,976 (24000/1001) кадра/сек
Цветовое пространство                    : YUV
Субдискретизация насыщенности            : 4:2:0
Битовая глубина                          : 8 бит
Тип развёртки                            : Прогрессивная
Бит/(Пиксели*Кадры)                      : 0.225
Размер потока                            : 6,25 Гбайт (94%)
Библиотека кодирования                   : x264 core 152 r2851 ba24899
Настройки программы                      : cabac=1 / ref=5 / deblock=1:-3:-3 / analyse=0x3:0x113 / me=umh / subme=11 / psy=1 / psy_rd=1.00:0.00 / mixed_ref=1 / me_range=32 / chroma_me=1 / trellis=2 / 8x8dct=1 / cqm=0 / deadzone=21,11 / fast_pskip=0 / chroma_qp_offset=-2 / threads=12 / lookahead_threads=2 / sliced_threads=0 / nr=0 / decimate=0 / interlaced=0 / bluray_compat=0 / constrained_intra=0 / bframes=9 / b_pyramid=2 / b_adapt=2 / b_bias=0 / direct=3 / weightb=1 / open_gop=0 / weightp=2 / keyint=250 / keyint_min=23 / scenecut=40 / intra_refresh=0 / rc_lookahead=40 / rc=2pass / mbtree=0 / bitrate=8333 / ratetol=1.0 / qcomp=0.70 / qpmin=0 / qpmax=69 / qpstep=4 / cplxblur=20.0 / qblur=0.5 / vbv_maxrate=50000 / vbv_bufsize=62500 / nal_hrd=none / filler=0 / ip_ratio=1.40 / pb_ratio=1.30 / aq=3:0.70
Язык                                     : English
Default                                  : Да
Forced                                   : Нет

Аудио
Идентификатор                            : 2
Формат                                   : AC-3
Формат/Информация                        : Audio Coding 3
Расширение режима                        : CM (complete main)
Параметр Endianness формата              : Big
Идентификатор кодека                     : A_AC3
Продолжительность                        : 1 ч. 49 м.
Вид битрейта                             : Постоянный
Битрейт                                  : 384 Кбит/сек
Каналы                                   : 6 каналов
Расположение каналов                     : Front: L C R, Side: L R, LFE
Частота                                  : 48,0 КГц
Частота кадров                           : 31,250 кадров/сек (1536 spf)
Метод сжатия                             : С потерями
Размер потока                            : 302 Мбайт (4%)
Язык                                     : Russian
Default                                  : Да
Forced                                   : Нет

Текст
Идентификатор                            : 3
Формат                                   : UTF-8
Идентификатор кодека                     : S_TEXT/UTF8
Идентификатор кодека/Информация          : UTF-8 Plain Text
Язык                                     : Russian
Default                                  : Нет
Forced                                   : Нет

Меню
00:00:00.000                             : en:Chapter 1
00:09:39.870                             : en:Chapter 2
00:13:46.866                             : en:Chapter 3
00:18:04.083                             : en:Chapter 4
00:21:28.287                             : en:Chapter 5
00:28:32.501                             : en:Chapter 6
00:39:14.809                             : en:Chapter 7
00:48:41.251                             : en:Chapter 8
00:54:03.197                             : en:Chapter 9
01:03:04.530                             : en:Chapter 10
01:09:48.265                             : en:Chapter 11
01:19:03.195                             : en:Chapter 12
01:29:05.546                             : en:Chapter 13
01:40:03.497                             : en:Chapter 14




Скриншоты:
[+] Всего файлов в раздаче - 1:
A.Wrinkle.in.Time.(2018).BDRip-1080p.MegaPeer.(qqss44).mkv6.67 GB

Текущая раздача:
ДатаКомментарии    РазмерПиры
2018-06-10 U Излом времени / A Wrinkle in Time (2018) BDRip 1080p от qqss44 & MegaPeer | iTunes 3 К 6.67 GB ↑ 237 ↓ 151

Показать еще раздачи по запросу излом:
2018-06-13 U Излом времени / A Wrinkle in Time (2018) BDRip от ExKinoRay | iTunes 2.13 GB ↑ 75 ↓ 25
2018-06-13 U Излом времени / A Wrinkle in Time (2018) BDRip от ExKinoRay | iTunes 1.41 GB ↑ 87 ↓ 46
2018-06-13 U Излом времени / A Wrinkle in Time (2018) BDRip-AVC от HELLYWOOD | iTunes 1К2.13 GB ↑ 98 ↓ 33
2018-06-10 U Излом времени / A Wrinkle in Time (2018) HDRip от ExKinoRay | iTunes 746.55 MB ↑ 64 ↓ 20
2018-06-09 U Излом времени / A Wrinkle in Time (2018) BDRip-AVC от OlLanDGroup | iTunes 2.05 GB ↑ 128 ↓ 45
2018-06-09 U Излом времени / A Wrinkle in Time (2018) HDRip от Seven | iTunes 741.39 MB ↑ 188 ↓ 40
2018-06-08 U Излом времени / A Wrinkle in Time (2018) BDRip от R.G.Resident | iTunes 1.46 GB ↑ 254 ↓ 135

Отзывы
gordon19721
а где спасибо поставить?

gordon19721
а где спасибо поставить?

gordon19721
все равно, спасибо за поддержку сайта и возможность получать удовольствие от общения)))

Зарегистрируйтесь чтобы добавить комментарий.
Обратная связь
Copyleft ©