↑↓Torrent.by
Поиск
Логин: Регистрация
Пароль: Восстановить пароль
Загрузка...

Tomb Raider: Лара Крофт / Tomb Raider (2018) HDRip-AVC от ExKinoRay | Лицензия

Скачать tomb-raider-lara-kroft-2018-hdrip-avc-ot-exkinoray-licenziya.torrent
U Магнитная ссылка Размер: 745.62 MB Раздают: 45 Качают: 13 Добавлен: 2018-06-11 07:14:02
Tomb Raider: Лара Крофт / Tomb Raider (2018) HDRip-AVC от ExKinoRay | Лицензия

Название: Tomb Raider: Лара Крофт
Оригинальное название: Tomb Raider
Год выхода: 2018
Жанр:  Боевик, приключения
Режиссер: Роар Утхауг
В ролях: Алисия Викандер, Доминик Уэст, Уолтон Гоггинс, Дэниэл Ву, Кристин Скотт Томас, Дерек Джекоби, Александр Виллауме, Тамер Барджаг, Эдриан Коллинз, Кинэн Эррисон, Андриан Мазив, Милтон Шорр, Ханна Джон-Кэймен, Питер Уэйсон, Сэмюэл Мак, Скай Янг, Билли Постлтуэйт, Рекха Джон-Чериян, Антонио Аакил, Эмили Кэри, Рэй Лим

О фильме :
Лара Крофт - весьма самостоятельная дочь эксцентричного искателя приключений, который пропал, едва она стала подростком. Теперь ей двадцать один, она бесцельно проживает свою жизнь, курьером рассекая на байке по забитым улицам восточного Лондона, а ее заработка едва хватает на оплату квартиры и занятий в колледже. Решительно настроенная пробиться сама, она отказывается брать на себя руководство глобальной империей отца, столь же категорично отвергая мысль о том, что он действительно пропал. Слыша советы о том, что ей нужно смириться с этим фактом и жить дальше после семи лет бесплодных поисков, Лара уже и сама не понимает, что же заставляет ее распутывать обстоятельства его таинственной смерти.

Страна: Великобритания, США
Студия: Metro-Goldwyn-Mayer (MGM), Square Enix Inc., Warner Bros. Pictures
Продолжительность: 01:57:50
Перевод: Дублированный | Лицензия

Файл
Формат: MKV
Качество: HDRip-AVC
Видео: MPEG-4 AVC, 768x320, ~ 807 Кбит/с
Аудио:  AAC-HE, 2 ch, ~ 76 Кбит/с
Субтитры: Русские (Forced)

Релиз:


[+] MI
Общее
Уникальный идентификатор : 187084125042345081294177865365342524371 (0x8CBF1783BBF23A9BA808271E758E13D3)
Полное имя : D:MOVIESTomb_Raider.2018.ExKinoRay.mkv
Формат : Matroska
Версия формата : Version 4 / Version 2
Размер файла : 746 Мбайт
Продолжительность : 1 ч. 57 м.
Общий поток : 885 Кбит/сек
Дата кодирования : UTC 2018-06-10 15:53:43
Программа кодирования : mkvmerge v15.0.0 ('Duel with the Devil') 64-bit
Библиотека кодирования : libebml v1.3.5 + libmatroska v1.4.5

Видео
Идентификатор : 1
Формат : AVC
Формат/Информация : Advanced Video Codec
Профиль формата : High@L4.1
Параметр CABAC формата : Да
Параметр RefFrames формата : 10 кадров
Идентификатор кодека : V_MPEG4/ISO/AVC
Продолжительность : 1 ч. 57 м.
Битрейт : 807 Кбит/сек
Ширина : 768 пикселей
Высота : 320 пикселей
Соотношение сторон : 2,40:1
Режим частоты кадров : Постоянный
Частота кадров : 23,976 (24000/1001) кадра/сек
Цветовое пространство : YUV
Субдискретизация насыщенности : 4:2:0
Битовая глубина : 8 бит
Тип развёртки : Прогрессивная
Бит/(Пиксели*Кадры) : 0.137
Размер потока : 680 Мбайт (91%)
Библиотека кодирования : x264 core 152 r2851kMod ba24899
Настройки программы : cabac=1 / ref=10 / deblock=1:-3:-3 / analyse=0x3:0x133 / me=umh / subme=11 / psy=1 / fade_compensate=0.00 / psy_rd=1.00:0.15 / mixed_ref=1 / me_range=32 / chroma_me=1 / trellis=2 / 8x8dct=1 / cqm=0 / deadzone=21,11 / fast_pskip=0 / chroma_qp_offset=-3 / threads=6 / lookahead_threads=1 / sliced_threads=0 / nr=0 / decimate=0 / interlaced=0 / bluray_compat=0 / constrained_intra=0 / bframes=10 / b_pyramid=2 / b_adapt=2 / b_bias=0 / direct=3 / weightb=1 / open_gop=0 / weightp=2 / keyint=240 / keyint_min=23 / scenecut=40 / intra_refresh=0 / rc_lookahead=40 / rc=2pass / mbtree=1 / bitrate=807 / ratetol=1.0 / qcomp=0.60 / qpmin=0 / qpmax=69 / qpstep=4 / cplxblur=20.0 / qblur=0.5 / vbv_maxrate=50000 / vbv_bufsize=62500 / nal_hrd=none / filler=0 / ip_ratio=1.40 / aq=3:1.00
Default : Да
Forced : Нет

Аудио
Идентификатор : 2
Формат : AAC
Формат/Информация : Advanced Audio Codec
Профиль формата : HE-AAC / LC
Идентификатор кодека : A_AAC
Продолжительность : 1 ч. 57 м.
Битрейт : 76,0 Кбит/сек
Каналы : 2 канала
Расположение каналов : Front: L R
Частота : 48,0 КГц / 24,0 КГц
Частота кадров : 23,438 кадра/сек (1024 SPF)
Метод сжатия : С потерями
Задержка видео : 31 мс.
Размер потока : 64,1 Мбайт (9%)
Default : Да
Forced : Нет

Текст
Идентификатор : 3
Формат : UTF-8
Идентификатор кодека : S_TEXT/UTF8
Идентификатор кодека/Информация : UTF-8 Plain Text
Продолжительность : 1 ч. 56 м.
Битрейт : 1 бит/сек
ElementCount : 36
Размер потока : 1,35 Кбайт (0%)
Заголовок : Русские (Forced)
Язык : Russian
Default : Да
Forced : Да

Меню
00:00:00.000 : :Chapter 01
00:13:13.250 : :Chapter 02
00:24:04.234 : :Chapter 03
00:31:57.999 : :Chapter 04
00:39:57.061 : :Chapter 05
00:50:31.069 : :Chapter 06
01:04:49.844 : :Chapter 07
01:13:58.100 : :Chapter 08
01:20:17.395 : :Chapter 09
01:27:41.130 : :Chapter 10
01:38:41.624 : :Chapter 11
01:51:17.420 : :Chapter 12




Скриншоты:
[+] Всего файлов в раздаче - 1:
Tomb_Raider.2018.ExKinoRay.mkv745.62 MB

Текущая раздача:
ДатаКомментарии    РазмерПиры
2018-06-11 U Tomb Raider: Лара Крофт / Tomb Raider (2018) HDRip-AVC от ExKinoRay | Лицензия 745.62 MB ↑ 45 ↓ 13

Показать еще раздачи по запросу tomb:
2018-08-09 U Расхитительница гробниц / Tomb Invader (2018) HDRip 720p | GreenРай Studio 3.85 GB ↑ 29 ↓ 23
2018-08-09 U Расхитительница гробниц / Tomb Invader (2018) HDRip | GreenРай Studio 1.37 GB ↑ 77 ↓ 34
2018-08-09 U Расхитительница гробниц / Tomb Invader (2018) HDRip 1080p | GreenРай Studio 7.62 GB ↑ 29 ↓ 37
2018-06-29 U Tomb Raider: Лара Крофт / Tomb Raider (2018) BDRip 1080p | D, P, L1 | Лицензия 14.24 GB ↑ 77 ↓ 36
2018-06-18 U Tomb Raider: Лара Крофт / Tomb Raider (2018) BDRip 1080p от Rustorka | 60 fps | Лицензия 15.94 GB ↑ 57 ↓ 33
2018-06-18 U Tomb Raider: Лара Крофт / Tomb Raider (2018) BDRip от HQCLUB | Лицензия 2.18 GB ↑ 96 ↓ 36
2018-06-16 U Tomb Raider: Лара Крофт / Tomb Raider (2018) BDRemux 1080p | US Transfer | D, P, L1 | Лицензия 26.60 GB ↑ 59 ↓ 42

Отзывы
Зарегистрируйтесь чтобы добавить комментарий.
Обратная связь
Copyleft ©