↑↓Torrent.by
Поиск
Логин: Регистрация
Пароль: Восстановить пароль
Загрузка...

Скиф (2018) BDRip 1080p от qusi555 | Лицензия

Скачать skif-2018-bdrip-1080p-ot-qusi555-licenziya.torrent
U Магнитная ссылка Размер: 6.89 GB Раздают: 73 Качают: 19 Добавлен: 2018-06-11 07:16:53
Скиф (2018) BDRip 1080p от qusi555 | Лицензия

Название: Скиф
Год выхода: 2018
Страна: Россия
Студия: Кинокомпания СТВ
Жанр:  Драма, история, фэнтези, боевик, приключения
Режиссер: Рустам Мосафир
В ролях: Алексей Фаддеев, Виталий Кравченко, Александр Кузнецов, Александр Пацевич, Юрий Цурило, Андрей Пермяков, Василиса Измайлова, Алексей Овсянников, Фёдор Рощин, Рустам Мосафир

Действие фильма происходит во время смены цивилизаций. В Евразии начинается новая эра. Ушли в небытие гордые воины — скифы, их вымирающие потомки превратились в безжалостных наемных убийц, «волков Ареса». Ратнику Лютобору предстоит тяжелое испытание. Втянутый в междоусобные интриги он отправляется в опасный путь ради спасения семьи, а его проводником становится пленный скиф Куница. Они — враги и молятся разным богам, но вынуждены идти вместе. Через дикий степной мир к пристанищу последних скифов, где их ждет почти неминуемая смерть…

Продолжительность: 01:44:32
Язык: Русский | Лицензия BD GER
Качество: BDRip 1080p [исх. BDRemux 1080p]
Видео: AVC/X264@4.1, 1920x804p, 8178 kbps, 23.976 fps
Аудио1: 48 kHz, AC3, 5.1 ch, ~640 kbps avg - Rus
Аудио2: 48 kHz, AC3, 5.1 ch, ~640 kbps avg - Ger
Субтитры: Немецкие (forced, full)


[+] Media İnfo and Log x264

General
Format                                   : Matroska
Format version                           : Version 4 / Version 2
File size                                : 6.89 GiB
Duration                                 : 1 h 44 min
Overall bit rate                         : 9 435 kb/s
Movie name                               : ENCODER: qusi555
Encoded date                             : UTC 2018-06-10 12:55:09
Writing application                      : mkvmerge v8.3.0 ('Over the Horizon') 64bit
Writing library                          : libebml v1.3.1 + libmatroska v1.4.2

Video
ID                                       : 1
Format                                   : AVC
Format/Info                              : Advanced Video Codec
Format profile                           : High@L4.1
Format settings                          : CABAC / 5 Ref Frames
Format settings, CABAC                   : Yes
Format settings, RefFrames               : 5 frames
Codec ID                                 : V_MPEG4/ISO/AVC
Duration                                 : 1 h 44 min
Bit rate                                 : 8 178 kb/s
Width                                    : 1 920 pixels
Height                                   : 804 pixels
Display aspect ratio                     : 2.40:1
Frame rate mode                          : Constant
Frame rate                               : 23.976 (24000/1001) FPS
Color space                              : YUV
Chroma subsampling                       : 4:2:0
Bit depth                                : 8 bits
Scan type                                : Progressive
Bits/(Pixel*Frame)                       : 0.221
Stream size                              : 5.95 GiB (86%)
Title                                    : ENCODER: qusi555
Writing library                          : x264 core 155 r2901 7d0ff22
Encoding settings                        : cabac=1 / ref=5 / deblock=1:-3:-3 / analyse=0x3:0x133 / me=umh / subme=10 / psy=1 / psy_rd=1.05:0.00 / mixed_ref=1 / me_range=32 / chroma_me=1 / trellis=2 / 8x8dct=1 / cqm=0 / deadzone=21,11 / fast_pskip=0 / chroma_qp_offset=-4 / threads=12 / lookahead_threads=2 / sliced_threads=0 / nr=0 / decimate=0 / interlaced=0 / bluray_compat=0 / constrained_intra=0 / bframes=8 / b_pyramid=2 / b_adapt=2 / b_bias=0 / direct=3 / weightb=1 / open_gop=0 / weightp=2 / keyint=240 / keyint_min=23 / scenecut=40 / intra_refresh=0 / rc_lookahead=60 / rc=2pass / mbtree=0 / bitrate=8178 / ratetol=1.0 / qcomp=0.65 / qpmin=0 / qpmax=69 / qpstep=4 / cplxblur=20.0 / qblur=0.5 / vbv_maxrate=50000 / vbv_bufsize=62500 / nal_hrd=none / filler=0 / ip_ratio=1.30 / pb_ratio=1.20 / aq=3:0.80
Default                                  : Yes
Forced                                   : No

Audio #1
ID                                       : 2
Format                                   : AC-3
Format/Info                              : Audio Coding 3
Codec ID                                 : A_AC3
Duration                                 : 1 h 44 min
Bit rate mode                            : Constant
Bit rate                                 : 640 kb/s
Channel(s)                               : 6 channels
Channel positions                        : Front: L C R, Side: L R, LFE
Sampling rate                            : 48.0 kHz
Frame rate                               : 31.250 FPS (1536 SPF)
Bit depth                                : 16 bits
Compression mode                         : Lossy
Stream size                              : 479 MiB (7%)
Title                                    : BD GER
Language                                 : Russian
Service kind                             : Complete Main
Default                                  : Yes
Forced                                   : No

Audio #2
ID                                       : 3
Format                                   : AC-3
Format/Info                              : Audio Coding 3
Codec ID                                 : A_AC3
Duration                                 : 1 h 44 min
Bit rate mode                            : Constant
Bit rate                                 : 640 kb/s
Channel(s)                               : 6 channels
Channel positions                        : Front: L C R, Side: L R, LFE
Sampling rate                            : 48.0 kHz
Frame rate                               : 31.250 FPS (1536 SPF)
Bit depth                                : 16 bits
Compression mode                         : Lossy
Stream size                              : 479 MiB (7%)
Title                                    : BD GER
Language                                 : German
Service kind                             : Complete Main
Default                                  : No
Forced                                   : No

Text #1
ID                                       : 4
Format                                   : UTF-8
Codec ID                                 : S_TEXT/UTF8
Codec ID/Info                            : UTF-8 Plain Text
Duration                                 : 1 h 26 min
Bit rate                                 : 0 b/s
Count of elements                        : 2
Stream size                              : 38.0 Bytes (0%)
Title                                    : Forced
Language                                 : German
Default                                  : No
Forced                                   : No

Text #2
ID                                       : 5
Format                                   : UTF-8
Codec ID                                 : S_TEXT/UTF8
Codec ID/Info                            : UTF-8 Plain Text
Duration                                 : 1 h 40 min
Bit rate                                 : 25 b/s
Count of elements                        : 425
Stream size                              : 18.4 KiB (0%)
Title                                    : Full
Language                                 : German
Default                                  : No
Forced                                   : No

log x264
-[Information] [10.6.2018 09:04:11] y4m [info]: 1920x804p 1:1 @ 24000/1001 fps (cfr)
-[Information] [10.6.2018 09:04:11] x264 [info]: using SAR=1/1
-[Information] [10.6.2018 09:04:11] x264 [info]: using cpu capabilities: MMX2 SSE2Fast SSSE3 SSE4.2 AVX FMA3 BMI2 AVX2
-[Information] [10.6.2018 09:04:11] x264 [info]: profile High, level 4.1
-[Information] [10.6.2018 14:05:15] x264 [info]: frame I:932   Avg QP:18.88  size:173064
-[Information] [10.6.2018 14:05:15] x264 [info]: frame P:42442 Avg QP:21.57  size: 67806
-[Information] [10.6.2018 14:05:15] x264 [info]: frame B:107019 Avg QP:22.67  size: 31334
-[Information] [10.6.2018 14:05:15] x264 [info]: consecutive B-frames:  6.7%  7.5% 13.5% 22.9% 14.1% 19.3%  7.7%  6.5%  1.8%
-[Information] [10.6.2018 14:05:15] x264 [info]: mb I  I16..4:  9.2% 81.1%  9.7%
-[Information] [10.6.2018 14:05:15] x264 [info]: mb P  I16..4:  2.1% 17.3%  1.7%  P16..4: 45.9% 17.0% 10.3%  0.1%  0.0%    skip: 5.5%
-[Information] [10.6.2018 14:05:15] x264 [info]: mb B  I16..4:  0.1%  1.8%  0.2%  B16..8: 42.4% 10.9%  2.8%  direct:10.1%  skip:31.6%  L0:46.5% L1:44.2% BI: 9.3%
-[Information] [10.6.2018 14:05:15] x264 [info]: 8x8 transform intra:82.1% inter:72.0%
-[Information] [10.6.2018 14:05:15] x264 [info]: direct mvs  spatial:99.0% temporal:1.0%
-[Information] [10.6.2018 14:05:15] x264 [info]: coded y,uvDC,uvAC intra: 83.3% 82.2% 51.2% inter: 37.5% 40.2% 15.0%
-[Information] [10.6.2018 14:05:15] x264 [info]: i16 v,h,dc,p: 18% 19%  7% 56%
-[Information] [10.6.2018 14:05:15] x264 [info]: i8 v,h,dc,ddl,ddr,vr,hd,vl,hu:  9%  6%  4% 10% 16% 15% 16% 11% 13%
-[Information] [10.6.2018 14:05:15] x264 [info]: i4 v,h,dc,ddl,ddr,vr,hd,vl,hu: 21%  4%  3%  8% 15% 14% 14%  9% 10%
-[Information] [10.6.2018 14:05:15] x264 [info]: i8c dc,h,v,p: 42% 22% 19% 18%
-[Information] [10.6.2018 14:05:15] x264 [info]: Weighted P-Frames: Y:6.2% UV:4.0%
-[Information] [10.6.2018 14:05:15] x264 [info]: ref P L0: 50.0% 13.7% 18.4%  8.7%  7.9%  1.3%  0.0%
-[Information] [10.6.2018 14:05:15] x264 [info]: ref B L0: 77.0% 15.0%  6.3%  1.8%
-[Information] [10.6.2018 14:05:15] x264 [info]: ref B L1: 95.1%  4.9%
-[Information] [10.6.2018 14:05:15] x264 [info]: kb/s:8152.86
-[Information] [10.6.2018 14:05:15] encoded 150393 frames, 8.33 fps, 8152.86 kb/s



Скриншоты:
[+] Всего файлов в раздаче - 1:
Скиф (2018) BDRip 1080p от qusi555 Лицензия.mkv6.89 GB

Текущая раздача:
ДатаКомментарии    РазмерПиры
2018-06-11 U Скиф (2018) BDRip 1080p от qusi555 | Лицензия 6.89 GB ↑ 73 ↓ 19

Показать еще раздачи по запросу скиф:
2018-07-16 U Скиф (2018) BDRip 1080p от HELLYWOOD | Лицензия 1К7.94 GB ↑ 27 ↓ 31
2018-06-25 U Скиф (2018) HDRip-AVC | Лицензия 744.39 MB ↑ 54 ↓ 14
2018-06-11 U Скиф (2018) BDRip-AVC от qusi555 | Лицензия 1.45 GB ↑ 76 ↓ 13
2018-06-05 U Скиф (2018) HDRip от Scarabey | Лицензия 1.45 GB ↑ 213 ↓ 24
2018-06-03 U Скиф (2018) BDRip от GeneralFilm | Лицензия 746.58 MB ↑ 37 ↓ 13
2018-06-03 U Скиф (2018) BDRip от ExKinoRay | Лицензия 1.46 GB ↑ 211 ↓ 36
2018-06-03 U Скиф (2018) BDRip от HQ-ViDEO | Лицензия 1.45 GB ↑ 119 ↓ 43

Отзывы
Зарегистрируйтесь чтобы добавить комментарий.
Обратная связь
Copyleft ©