↑↓Torrent.by
Поиск
Логин: Регистрация
Пароль: Восстановить пароль
Загрузка...

Скиф (2018) BDRip-AVC от qusi555 | Лицензия

Скачать skif-2018-bdrip-avc-ot-qusi555-licenziya.torrent
U Магнитная ссылка Размер: 1.45 GB Раздают: 46 Качают: 5 Добавлен: 2018-06-11 07:18:23
Скиф (2018) BDRip-AVC от qusi555 | Лицензия

Название: Скиф
Год выхода: 2018
Страна: Россия
Студия: Кинокомпания СТВ
Жанр:  Драма, история, фэнтези, боевик, приключения
Режиссер: Рустам Мосафир
В ролях: Алексей Фаддеев, Виталий Кравченко, Александр Кузнецов, Александр Пацевич, Юрий Цурило, Андрей Пермяков, Василиса Измайлова, Алексей Овсянников, Фёдор Рощин, Рустам Мосафир

Действие фильма происходит во время смены цивилизаций. В Евразии начинается новая эра. Ушли в небытие гордые воины — скифы, их вымирающие потомки превратились в безжалостных наемных убийц, «волков Ареса». Ратнику Лютобору предстоит тяжелое испытание. Втянутый в междоусобные интриги он отправляется в опасный путь ради спасения семьи, а его проводником становится пленный скиф Куница. Они — враги и молятся разным богам, но вынуждены идти вместе. Через дикий степной мир к пристанищу последних скифов, где их ждет почти неминуемая смерть…

Продолжительность: 01:44:32
Язык: Русский | Лицензия BD GER
Качество: BDRip-AVC [исх. BDRemux 1080p]
Видео: AVC/X264@4.1, 1194x500p, 1803 kbps, 23.976 fps
Аудио: 48 kHz, AC3, 2.0 ch, ~192 kbps avg - Rus
Субтитры: Немецкие (forced, full)


[+] Media İnfo and Log x264

General
Format : Matroska
Format version : Version 4 / Version 2
File size : 1.45 GiB
Duration : 1 h 44 min
Overall bit rate : 1 992 kb/s
Movie name : ENCODER: qusi555
Encoded date : UTC 2018-06-10 08:28:14
Writing application : mkvmerge v8.3.0 ('Over the Horizon') 64bit
Writing library : libebml v1.3.1 + libmatroska v1.4.2

Video
ID : 1
Format : AVC
Format/Info : Advanced Video Codec
Format profile : High@L4.1
Format settings : CABAC / 13 Ref Frames
Format settings, CABAC : Yes
Format settings, RefFrames : 13 frames
Codec ID : V_MPEG4/ISO/AVC
Duration : 1 h 44 min
Bit rate : 1 803 kb/s
Width : 1 194 pixels
Height : 500 pixels
Display aspect ratio : 2.40:1
Frame rate mode : Constant
Frame rate : 23.976 (24000/1001) FPS
Color space : YUV
Chroma subsampling : 4:2:0
Bit depth : 8 bits
Scan type : Progressive
Bits/(Pixel*Frame) : 0.126
Stream size : 1.31 GiB (90%)
Title : ENCODER: qusi555
Writing library : x264 core 155 r2901 7d0ff22
Encoding settings : cabac=1 / ref=13 / deblock=1:-3:-3 / analyse=0x3:0x133 / me=umh / subme=10 / psy=1 / psy_rd=1.05:0.00 / mixed_ref=1 / me_range=32 / chroma_me=1 / trellis=2 / 8x8dct=1 / cqm=0 / deadzone=21,11 / fast_pskip=0 / chroma_qp_offset=-4 / threads=12 / lookahead_threads=2 / sliced_threads=0 / nr=0 / decimate=0 / interlaced=0 / bluray_compat=0 / constrained_intra=0 / bframes=8 / b_pyramid=2 / b_adapt=2 / b_bias=0 / direct=3 / weightb=1 / open_gop=0 / weightp=2 / keyint=240 / keyint_min=23 / scenecut=40 / intra_refresh=0 / rc_lookahead=60 / rc=2pass / mbtree=0 / bitrate=1803 / ratetol=1.0 / qcomp=0.65 / qpmin=0 / qpmax=69 / qpstep=4 / cplxblur=20.0 / qblur=0.5 / vbv_maxrate=50000 / vbv_bufsize=62500 / nal_hrd=none / filler=0 / ip_ratio=1.30 / pb_ratio=1.20 / aq=3:0.80
Default : Yes
Forced : No

Audio
ID : 2
Format : AC-3
Format/Info : Audio Coding 3
Codec ID : A_AC3
Duration : 1 h 44 min
Bit rate mode : Constant
Bit rate : 192 kb/s
Channel(s) : 2 channels
Channel positions : Front: L R
Sampling rate : 48.0 kHz
Frame rate : 31.250 FPS (1536 SPF)
Bit depth : 16 bits
Compression mode : Lossy
Stream size : 144 MiB (10%)
Title : BD GER
Language : Russian
Service kind : Complete Main
Default : Yes
Forced : No

Text #1
ID : 3
Format : UTF-8
Codec ID : S_TEXT/UTF8
Codec ID/Info : UTF-8 Plain Text
Duration : 1 h 26 min
Bit rate : 0 b/s
Count of elements : 2
Stream size : 38.0 Bytes (0%)
Title : Forced
Language : German
Default : No
Forced : No

Text #2
ID : 4
Format : UTF-8
Codec ID : S_TEXT/UTF8
Codec ID/Info : UTF-8 Plain Text
Duration : 1 h 40 min
Bit rate : 25 b/s
Count of elements : 425
Stream size : 18.4 KiB (0%)
Title : Full
Language : German
Default : No
Forced : No

log x264
-[Information] [10.6.2018 05:31:17] y4m [info]: 1194x500p 1:1 @ 24000/1001 fps (cfr)
-[Information] [10.6.2018 05:31:17] x264 [info]: using SAR=1/1
-[Information] [10.6.2018 05:31:17] x264 [info]: using cpu capabilities: MMX2 SSE2Fast SSSE3 SSE4.2 AVX FMA3 BMI2 AVX2
-[Information] [10.6.2018 05:31:17] x264 [info]: profile High, level 4.1
-[Information] [10.6.2018 07:58:52] x264 [info]: frame I:1036  Avg QP:21.45  size: 56654
-[Information] [10.6.2018 07:58:52] x264 [info]: frame P:40782 Avg QP:24.90  size: 16854
-[Information] [10.6.2018 07:58:52] x264 [info]: frame B:108575 Avg QP:25.77  size:  6117
-[Information] [10.6.2018 07:58:52] x264 [info]: consecutive B-frames:  5.9%  5.8% 12.8% 24.9% 15.6% 21.3%  7.3%  4.4%  2.0%
-[Information] [10.6.2018 07:58:52] x264 [info]: mb I  I16..4:  9.4% 76.5% 14.1%
-[Information] [10.6.2018 07:58:52] x264 [info]: mb P  I16..4:  1.9% 11.7%  1.6%  P16..4: 52.3% 13.2% 11.8%  0.2%  0.0%    skip: 7.3%
-[Information] [10.6.2018 07:58:52] x264 [info]: mb B  I16..4:  0.1%  1.1%  0.2%  B16..8: 39.8%  7.8%  1.8%  direct: 5.5%  skip:43.7%  L0:46.7% L1:45.8% BI: 7.5%
-[Information] [10.6.2018 07:58:52] x264 [info]: 8x8 transform intra:77.2% inter:76.5%
-[Information] [10.6.2018 07:58:52] x264 [info]: direct mvs  spatial:98.3% temporal:1.7%
-[Information] [10.6.2018 07:58:52] x264 [info]: coded y,uvDC,uvAC intra: 73.8% 67.6% 30.1% inter: 20.7% 20.1% 5.2%
-[Information] [10.6.2018 07:58:52] x264 [info]: i16 v,h,dc,p: 15% 19%  6% 60%
-[Information] [10.6.2018 07:58:52] x264 [info]: i8 v,h,dc,ddl,ddr,vr,hd,vl,hu: 12%  6%  3% 10% 16% 15% 15% 11% 12%
-[Information] [10.6.2018 07:58:52] x264 [info]: i4 v,h,dc,ddl,ddr,vr,hd,vl,hu: 22%  4%  3%  8% 15% 14% 14%  9% 11%
-[Information] [10.6.2018 07:58:52] x264 [info]: i8c dc,h,v,p: 34% 27% 20% 19%
-[Information] [10.6.2018 07:58:52] x264 [info]: Weighted P-Frames: Y:9.2% UV:5.6%
-[Information] [10.6.2018 07:58:52] x264 [info]: ref P L0: 49.1% 15.3% 12.4%  5.2%  4.1%  3.1%  2.7%  1.6%  1.5%  1.3%  1.2%  1.1%  1.1%  0.2%  0.0%
-[Information] [10.6.2018 07:58:52] x264 [info]: ref B L0: 74.6%  9.3%  5.1%  2.8%  2.1%  1.6%  1.4%  0.9%  0.8%  0.7%  0.5%  0.2%
-[Information] [10.6.2018 07:58:52] x264 [info]: ref B L1: 95.5%  4.5%
-[Information] [10.6.2018 07:58:52] x264 [info]: kb/s:1798.50
-[Information] [10.6.2018 07:58:52] encoded 150393 frames, 16.98 fps, 1798.50 kb/s



Скриншоты:
[+] Всего файлов в раздаче - 1:
Скиф (2018) BDRip-AVC от qusi555 Лицензия.mkv1.45 GB

Текущая раздача:
ДатаКомментарии    РазмерПиры
2018-06-11 U Скиф (2018) BDRip-AVC от qusi555 | Лицензия 1.45 GB ↑ 46 ↓ 5

Показать еще раздачи по запросу скиф:
2018-06-11 U Скиф (2018) BDRip 1080p от qusi555 | Лицензия 6.89 GB ↑ 35 ↓ 12
2018-06-05 U Скиф (2018) HDRip от Scarabey | Лицензия 1.45 GB ↑ 106 ↓ 14
2018-06-03 U Скиф (2018) BDRip от GeneralFilm | Лицензия 746.58 MB ↑ 33 ↓ 10
2018-06-03 U Скиф (2018) BDRip от ExKinoRay | Лицензия 1.46 GB ↑ 139 ↓ 36
2018-06-03 U Скиф (2018) BDRip от HQ-ViDEO | Лицензия 1.45 GB ↑ 100 ↓ 42
2018-06-01 U Скиф (2018) BDRip-AVC от OlLanDGroup | GER Transfer | Лицензия 2.80 GB ↑ 87 ↓ 40
2018-05-31 U Скиф (2018) BDRip 1080p | Лицензия 11.51 GB ↑ 105 ↓ 65

Отзывы
Зарегистрируйтесь чтобы добавить комментарий.
Обратная связь
Copyleft ©