↑↓Torrent.by
Поиск
Логин: Регистрация
Пароль: Восстановить пароль
Загрузка...

Рэмпейдж / Rampage (2018) CAMRip | L2

Скачать rempeydzh-rampage-2018-camrip-l2.torrent
U Магнитная ссылка Размер: 1.36 GB Раздают: 397 Качают: 115 Добавлен: 2018-06-11 18:21:05
Рэмпейдж / Rampage (2018) CAMRip | L2

Название: Рэмпейдж
Оригинальное название: Rampage
Год выхода: 2018
Жанр: Фантастика, боевик, приключения
Режиссер: Брэд Пейтон
В ролях: Дуэйн Джонсон, Джеффри Дин Морган, Малин Акерман, Джо Манганьелло, Марли Шелтон, Уилл Юн Ли, Наоми Харрис, Джек Куэйд, Джейк Лэси, Бриэнн Хилл и другие
О фильме:
Приматолог Дэвис Окойи предпочитает держаться подальше от людей и дружит с Джорджем, удивительно умным альфа-самцом - гориллой, которого он воспитывал с самого рождения. Но вышедший из-под контроля генетический эксперимент превращает послушную обезьяну в яростного монстра. Более того, вскоре обнаруживается, что существуют и другие модифицированные хищники. Пока свежесозданные чудовища превращают в руины Северную Америку, стирая с лица Земли все, что попадается у них на пути, Окойи вместе с опальным генным инженером пытается изобрести антидот, прорываясь по бесконечному полю боя не только, чтобы предотвратить глобальную катастрофу, но и спасти бесстрашное существо, которое когда-то было его другом.

Страна: США, New Line Cinema
Продолжительность: 01:39:43
Перевод: Любительский (двухголосый закадровый) | HiWay Grope

Файл
Кодек: XviD
Качество: CAMRip
Видео: 720x344, 25 fps, ~1749 kbps, 0.28 bit/pixel
Звук:
Аудио rus: 48 kHz, AC3, 2/0 (L,R) ch, ~192 kbps
Субтитры: отсутствуют

Реклама: присутствует

Семпл

Релиз от: HiWay Grope


[+] MediaInfo:

General
Complete name                            : E:Rampage.2018.CAMRip.HiWayGropeRampage.2018.CAMRip.HiWayGrope.avi
Format                                   : AVI
Format/Info                              : Audio Video Interleave
File size                                : 1.36 GiB
Duration                                 : 1h 39mn
Overall bit rate                         : 1 951 Kbps
Writing application                      : VirtualDubMod 1.5.10.2 (build 2540/release)
Writing library                          : VirtualDubMod build 2540/release

Video
ID                                       : 0
Format                                   : xvid
Codec ID                                 : xvid
Duration                                 : 1h 39mn
Bit rate                                 : 1 750 Kbps
Width                                    : 720 pixels
Height                                   : 344 pixels
Display aspect ratio                     : 2.093
Frame rate                               : 25.000 fps
Bits/(Pixel*Frame)                       : 0.283
Stream size                              : 1.22 GiB (90%)

Audio
ID                                       : 1
Format                                   : AC-3
Format/Info                              : Audio Coding 3
Mode extension                           : CM (complete main)
Format settings, Endianness              : Big
Codec ID                                 : 2000
Duration                                 : 1h 39mn
Bit rate mode                            : Constant
Bit rate                                 : 192 Kbps
Channel(s)                               : 2 channels
Channel positions                        : Front: L R
Sampling rate                            : 48.0 KHz
Frame rate                               : 31.250 fps (1536 spf)
Compression mode                         : Lossy
Stream size                              : 137 MiB (10%)
Alignment                                : Split accross interleaves
Interleave, duration                     : 40 ms (1.00 video frame)
Interleave, preload duration             : 500 ms




Скриншоты:
[+] Всего файлов в раздаче - 1:
Rampage.2018.CAMRip.HiWayGrope.avi1.36 GB

Текущая раздача:
ДатаКомментарии    РазмерПиры
2018-06-11 U Рэмпейдж / Rampage (2018) CAMRip | L2 1.36 GB ↑ 397 ↓ 115

Показать еще раздачи по запросу рэмпейдж:
2018-07-13 U Рэмпейдж / Rampage (2018) BDRip 1080p от Ash61 | 3D-Video | halfOU | Лицензия 9.20 GB ↑ 159 ↓ 77
2018-07-12 U Рэмпейдж / Rampage (2018) HDRip от Scarabey | Лицензия 1.45 GB ↑ 1066 ↓ 56
2018-07-12 U Рэмпейдж / Rampage (2018) BDRip от ExKinoRay | Лицензия 1.46 GB ↑ 52 ↓ 13
2018-07-12 U Рэмпейдж / Rampage (2018) BDRip-AVC от HELLYWOOD | Лицензия 1К2.18 GB ↑ 62 ↓ 25
2018-07-11 U Рэмпейдж / Rampage (2018) BDRip-AVC от HELLYWOOD | Лицензия 1К1.46 GB ↑ 84 ↓ 22
2018-07-11 U Рэмпейдж / Rampage (2018) BDRip от GeneralFilm | Лицензия 1.46 GB ↑ 120 ↓ 13
2018-07-11 U Рэмпейдж / Rampage (2018) BDRip 720p от HELLYWOOD | Лицензия 4.36 GB ↑ 125 ↓ 80

Отзывы
Зарегистрируйтесь чтобы добавить комментарий.
Обратная связь
Copyleft ©