↑↓Torrent.by
Поиск
Логин: Регистрация
Пароль: Восстановить пароль
Загрузка...

Чёрные воды / Black Water (2018) BDRip 720p | HDrezka Studio

Скачать chernye-vody-black-water-2018-bdrip-720p-hdrezka-studio.torrent
U Магнитная ссылка Размер: 5.26 GB Раздают: 184 Качают: 109 Добавлен: 2018-06-11 18:21:35
Чёрные воды / Black Water (2018) BDRip 720p | HDrezka Studio

Название: Чёрные воды
Оригинальное название: Black Water
Год выхода: 2018
Жанр: боевик, драма
Режиссер: Павел Патрики
В ролях: Аарон О'Коннелл, Дольф Лундгрен, Жан-Клод Ван Дамм, Патрик Килпатрик, Ал Сапиенца, Джасмин Уолтц, Джон Пози, Кристофер Ван Варенберг, Кортни Би Турк

О фильме:
Во время выполнения особо важного задания, секретный агент Скотт Уиллер, работающий под глубоким прикрытием, неожиданно попадает в тщательно спланированную ловушку, в результате чего его напарница погибает, а сам он оказывается схвачен неизвестными людьми. Очнувшись в небольшой темной камере, Скотт узнает от странного незнакомца, заключенного по соседству, что он находится на подводной лодке, переоборудованной в специальную тюрьму, где сотрудники ЦРУ допрашивают особых заключенных, которым впоследствии суждено исчезнуть.

Страна: Канада
Студия: Dawn's Light
Продолжительность: 01:44:36
Перевод: Профессиональный (многоголосый, закадровый) | HDrezka Studio

Файл
Кодек: H.264
Качество: BDRip 720p | HDrezka Studio
Видео: AVC/H.264, 1280x536, ~5500 kbps, 23.976 fps
Звук:
Аудио 1: AC3, 2 ch, 192 Kbps - Русский
Аудио 2: DTS, 6 ch, 1509 Kbps - Английский
Субтитры: Отсутствуют


[+] Mediainfo
Общее
Уникальный идентификатор                 : 11823880485353603484341784011239683779 (0x8E5325101A4957A6D9CDE9BB8C976C3)
Полное имя                               : Black Water.2018.BDRip.720p.mkv
Формат                                   : Matroska
Версия формата                           : Version 4 / Version 2
Размер файла                             : 5,26 Гбайт
Продолжительность                        : 1 ч. 44 м.
Общий поток                              : 7196 Кбит/сек
Дата кодирования                         : UTC 2018-06-11 08:54:14
Программа кодирования                    : mkvmerge v23.0.0 ('The Bride Said No') 64-bit
Библиотека кодирования                   : libebml v1.3.6 + libmatroska v1.4.9

Видео
Идентификатор                            : 1
Формат                                   : AVC
Формат/Информация                        : Advanced Video Codec
Профиль формата                          : High@L4.1
Настройки формата                        : CABAC / 12 Ref Frames
Параметр CABAC формата                   : Да
Параметр RefFrames формата               : 12 кадров
Идентификатор кодека                     : V_MPEG4/ISO/AVC
Продолжительность                        : 1 ч. 44 м.
Битрейт                                  : 5500 Кбит/сек
Ширина                                   : 1280 пикселей
Высота                                   : 536 пикселей
Соотношение сторон                       : 2,40:1
Режим частоты кадров                     : Постоянный
Частота кадров                           : 23,976 (24000/1001) кадра/сек
Цветовое пространство                    : YUV
Субдискретизация насыщенности            : 4:2:0
Битовая глубина                          : 8 бит
Тип развёртки                            : Прогрессивная
Бит/(Пиксели*Кадры)                      : 0.334
Размер потока                            : 4,01 Гбайт (76%)
Заголовок                                : iFT
Библиотека кодирования                   : x264 core 142 r2431+42 c69a006 tMod [8-bit@all X86_64]
Настройки программы                      : cabac=1 / ref=12 / deblock=1:-3:-3 / analyse=0x3:0x133 / me=umh / subme=11 / psy=1 / fade_compensate=0.00 / psy_rd=1.05:1.05 / mixed_ref=1 / me_range=48 / chroma_me=1 / trellis=2 / 8x8dct=1 / cqm=0 / deadzone=21,11 / fast_pskip=0 / chroma_qp_offset=-4 / threads=16 / lookahead_threads=2 / sliced_threads=0 / nr=0 / decimate=0 / interlaced=0 / bluray_compat=0 / constrained_intra=0 / fgo=0 / bframes=8 / b_pyramid=2 / b_adapt=2 / b_bias=0 / direct=3 / weightb=1 / open_gop=0 / weightp=2 / keyint=240 / keyint_min=23 / scenecut=40 / intra_refresh=0 / rc_lookahead=100 / rc=2pass / mbtree=0 / bitrate=5500 / ratetol=1.0 / qcomp=0.70 / qpmin=0:0:0 / qpmax=69:69:69 / qpstep=4 / cplxblur=20.0 / qblur=0.5 / vbv_maxrate=62500 / vbv_bufsize=78125 / nal_hrd=none / filler=0 / ip_ratio=1.30 / pb_ratio=1.20 / aq=1:0.70 / aq-sensitivity=10.00 / aq-factor=1.00:1.00:1.00 / aq2=0 / aq3=0
Язык                                     : English
Default                                  : Да
Forced                                   : Нет
Цветовой диапазон                        : Limited
Основные цвета                           : BT.709
Характеристики трансфера                 : BT.709
Коэффициенты матрицы                     : BT.709

Аудио #1
Идентификатор                            : 2
Формат                                   : AC-3
Формат/Информация                        : Audio Coding 3
Идентификатор кодека                     : A_AC3
Продолжительность                        : 1 ч. 44 м.
Вид битрейта                             : Постоянный
Битрейт                                  : 192 Кбит/сек
Каналы                                   : 2 канала
Расположение каналов                     : Front: L R
Частота                                  : 48,0 КГц
Частота кадров                           : 31,250 кадров/сек (1536 SPF)
Битовая глубина                          : 16 бит
Метод сжатия                             : С потерями
Размер потока                            : 144 Мбайт (3%)
Заголовок                                : MVO | HDRezka Studio
Язык                                     : Russian
ServiceKind                              : Complete Main
Default                                  : Да
Forced                                   : Нет

Аудио #2
Идентификатор                            : 3
Формат                                   : DTS
Формат/Информация                        : Digital Theater Systems
Идентификатор кодека                     : A_DTS
Продолжительность                        : 1 ч. 44 м.
Вид битрейта                             : Постоянный
Битрейт                                  : 1509 Кбит/сек
Каналы                                   : 6 каналов
Расположение каналов                     : Front: L C R, Side: L R, LFE
Частота                                  : 48,0 КГц
Частота кадров                           : 93,750 кадра/сек (512 SPF)
Битовая глубина                          : 24 бит
Метод сжатия                             : С потерями
Размер потока                            : 1,10 Гбайт (21%)
Язык                                     : English
Default                                  : Нет
Forced                                   : Нет

Меню
00:00:00.000                             : en:Chapter 01
00:15:59.833                             : en:Chapter 02
00:27:36.446                             : en:Chapter 03
00:45:27.266                             : en:Chapter 04
00:55:15.937                             : en:Chapter 05
01:05:08.446                             : en:Chapter 06
01:16:59.281                             : en:Chapter 07
01:36:07.094                             : en:Chapter 08
01:44:36.103                             : en:Chapter 09  



Скриншоты:
[+] Всего файлов в раздаче - 1:
Black Water.2018.BDRip.720p.mkv5.26 GB

Отзывы
Зарегистрируйтесь чтобы добавить комментарий.
Обратная связь
Copyleft ©