↑↓Torrent.by
Поиск
Логин: Регистрация
Пароль: Восстановить пароль
Загрузка...

Сборщик долгов / The Debt Collector (2018) WEBRip | L2

Скачать sborschik-dolgov-the-debt-collector-2018-webrip-l2.torrent
U Магнитная ссылка Размер: 1.27 GB Раздают: 166 Качают: 115 Добавлен: 2018-06-11 18:21:42
Сборщик долгов / The Debt Collector (2018) WEBRip | L2

Название: Сборщик долгов
Оригинальное название: The Debt Collector
Год выхода: 2018
Жанр: Боевик
Режиссер: Джесси Джонсон
В ролях: Скотт Эдкинс, Майкл Паре, Тони Тодд, Владимир Кулих, Роберт Раслер, Луис Мэндилор, Селина Ло, Нихан Гар, Сара Финли, Ессам Феррис и другие
О фильме:
Чтобы спасти свою школу, мастер смешанных боевых искусств нанимается коллектором к криминальному авторитету, но сталкивается с необходимостью адаптировать свои моральные устои к беспощадным правилам мира больших денег.

Страна: США, Tarzana Product
Продолжительность: 01:36:25
Перевод: Любительский (двухголосый закадровый) | HiWay Grope

Файл
Кодек: XviD
Качество: WEBRip
Видео: 720x304, 25 fps, ~1498 kbps, 0.27 bit/pixel
Звук:
Аудио rus: AC3, 48 kHz, 6 ch, 384 Kbps
Субтитры: отсутствуют

Реклама: присутствует

Семпл

Релиз от: HiWay Grope


[+] MediaInfo:

General
Complete name                            : E:The.Debt.Collector.2018.WEBRip.HiWayGropeThe.Debt.Collector.2018.WEBRip.HiWayGrope.avi
Format                                   : AVI
Format/Info                              : Audio Video Interleave
File size                                : 1.27 GiB
Duration                                 : 1h 36mn
Overall bit rate                         : 1 892 Kbps
Writing application                      : VirtualDubMod 1.5.10.2 (build 2540/release)
Writing library                          : VirtualDubMod build 2540/release

Video
ID                                       : 0
Format                                   : xvid
Codec ID                                 : xvid
Duration                                 : 1h 36mn
Bit rate                                 : 1 498 Kbps
Width                                    : 720 pixels
Height                                   : 304 pixels
Display aspect ratio                     : 2.35:1
Frame rate                               : 25.000 fps
Bits/(Pixel*Frame)                       : 0.274
Stream size                              : 1.01 GiB (79%)

Audio
ID                                       : 1
Format                                   : AC-3
Format/Info                              : Audio Coding 3
Mode extension                           : CM (complete main)
Format settings, Endianness              : Big
Codec ID                                 : 2000
Duration                                 : 1h 36mn
Bit rate mode                            : Constant
Bit rate                                 : 384 Kbps
Channel(s)                               : 6 channels
Channel positions                        : Front: L C R, Side: L R, LFE
Sampling rate                            : 48.0 KHz
Frame rate                               : 31.250 fps (1536 spf)
Compression mode                         : Lossy
Stream size                              : 265 MiB (20%)
Alignment                                : Split accross interleaves
Interleave, duration                     : 40 ms (1.00 video frame)
Interleave, preload duration             : 500 ms




Скриншоты:
[+] Всего файлов в раздаче - 1:
The.Debt.Collector.2018.WEBRip.HiWayGrope.avi1.27 GB

Текущая раздача:
ДатаКомментарии    РазмерПиры
2018-06-11 U Сборщик долгов / The Debt Collector (2018) WEBRip | L2 1.27 GB ↑ 166 ↓ 115

Похожие раздачи по запросу - сборщик:
2018-06-11 U Сборщик долгов / The Debt Collector (2018) WEBRip 720p | L2 3.03 GB ↑ 139 ↓ 81

Отзывы
Зарегистрируйтесь чтобы добавить комментарий.
Обратная связь
Copyleft ©